.
Авторизация | Регистрация
Хочешь лучшие торренты? Добавь свой email!
Добавить

Торрент скачать бесплатно

» » Карнавальная ночь (1956) BDRip [H.264] торрент скачать бесплатно




    Карнавальная ночь (1956) BDRip [H.264] торрент скачать бесплатно

    Опубликовал: Админ | Дата: 31-03-2016, 04:00 | Просмотров: 63

    Производство: СССР, Киностудия Мосфильм
    Жанр: Мюзикл, Комедия, Мелодрама
    Режиссер: Эльдар Рязанов

    Актеры
    Игорь Ильинский, Людмила Гурченко, Юрий Белов, Георгий Куликов, Сергей Филиппов, Ольга Власова, Андрей Тутышкин, Тамара Носова, Геннадий Юдин, Владимир Зельдин

    Описание

    Команда молодых работников клуба готовится к встрече Нового года. Они задумывают провести интересный и веселый праздник, но, на беду ребят, их берется контролировать директор клуба Огурцов — бюрократ, буквоед и чинуша. Собрав всех в своем кабинете, он подробно рассказывает о своем видении того, как правильно и полезно провести новогоднюю ночь. Организаторы понимают, что Огурцов собирается вместо праздника преподнести гостям клуба некий коктейль из смотра художественной самодеятельности и партсобрания. И тогда молодежь решает хитростью обойти недалекого начальника, чтобы организовать настоящий новогодний бал…

    Продолжительность: 01: 15: 31
    Качество видео: BDRip
    Видео: AVC/H.264, 1024x744, ~3 682 Kbps, 23.976 fps
    Аудио: AC3, 6 ch, 448 Kbps, 48.0 KHz
    Код:

    General
    Unique ID : 219949299205131454312571744407421904554 (0xA578B1B46105CCA89B4B14191F52E6AA)
    Complete name : G:Download_GCarnival_night_1956_BDRip_AVC.mkv
    Format : Matroska
    Format version : Version 2
    File size : 2.18 GiB
    Duration : 1h 15mn
    Overall bit rate : 4 133 Kbps
    Encoded date : UTC 2013-12-22 16:25:43
    Writing application : mkvmerge v5.1.0 (\'And so it goes\') built on Nov 28 2011 23:58:28
    Writing library : libebml v1.2.3 + libmatroska v1.3.0
    Video
    ID : 1
    Format : AVC
    Format/Info : Advanced Video Codec
    Format profile :High@L4.1
    Format settings, CABAC : Yes
    Format settings, ReFrames : 10 frames
    Codec ID : V_MPEG4/ISO/AVC
    Duration : 1h 15mn
    Bit rate : 3 682 Kbps
    Width : 1 024 pixels
    Height : 744 pixels
    Display aspect ratio : 1.376
    Frame rate mode : Constant
    Frame rate : 23.976 fps
    Color space : YUV
    Chroma subsampling : 4:2:0
    Bit depth : 8 bits
    Scan type : Progressive
    Bits/(Pixel*Frame) : 0.202
    Stream size : 1.90 GiB (87%)
    Writing library : x264 core 133 r2334 a3ac64b
    Encoding settings : cabac=1/ref=10/deblock=1:-1:-1/analyse=0x3:0x113/me=umh/subme=11/psy=1/psy_rd=1.00:0.05/mixed_ref=1/me_range=24/chroma_me=1/trellis=2/8x8dct=1/cqm=0/deadzone=21, 11/fast_pskip=0/chroma_qp_offset=-3/threads=12/lookahead_threads=2/sliced_threads=0/nr=0/decimate=0/interlaced=0/bluray_compat=0/constrained_intra=0/bframes=7/b_pyramid=2/b_adapt=2/b_bias=0/direct=3/weightb=1/open_gop=0/weightp=2/keyint=250/keyint_min=23/scenecut=40/intra_refresh=0/rc_lookahead=40/rc=2pass/mbtree=0/bitrate=3682/ratetol=1.0/qcomp=0.65/qpmin=0/qpmax=39/qpstep=4/cplxblur=20.0/qblur=0.5/vbv_maxrate=50000/vbv_bufsize=62500/nal_hrd=none/ip_ratio=1.40/pb_ratio=1.30/aq=1:1.00
    Language : English
    Default : Yes
    Forced : No
    Color range : Limited
    Color primaries : BT.709
    Transfer characteristics : BT.709
    Matrix coefficients : BT.709
    Audio
    ID : 2
    Format : AC-3
    Format/Info : Audio Coding 3
    Mode extension : CM (complete main)
    Format settings, Endianness : Big
    Codec ID : A_AC3
    Duration : 1h 15mn
    Bit rate mode : Constant
    Bit rate : 448 Kbps
    Channel(s) : 6 channels
    Channel positions : Front: L C R, Side: L R, LFE
    Sampling rate : 48.0 KHz
    Compression mode : Lossy
    Stream size : 242 MiB (11%)
    Language : Russian
    Default : Yes
    Forced : No


    Скриншоты для ознакомления




    Карнавальная ночь (1956) BDRip [H.264]
    загрузка...
    Рейтинг →
     (голосов: 1, оценка 5/5, голосовать можно 1 раз )

    Другие торренты по теме:

  • Карнавальная ночь (1956) BDRip [H.264 / 1080p] скачать через торрент бесплатно
  • Карнавальная ночь (1956) BDRip [H.265 / 1080p-LQ]


    • Комментарии (0):

      Информация

      Информация

        Посетители, находящиеся в группе Гости, не могут оставлять комментарии в данной новости.

        ↓ Меню




        ↓ Опрос

        Вы добавили сайт в закладки?
        Да
        Нет


        Top 10 за месяц (Фильмы)