.
Авторизация | Регистрация
Хочешь лучшие торренты? Добавь свой email!
Добавить

Торрент скачать бесплатно

» » Викинги / Vikings (2016) WEB-DL [H.264 / 1080p-LQ] (сезон 4, серии 1-6 из 20) LostFilm (обновляемая) скачать торрент бесплатно




    Викинги / Vikings (2016) WEB-DL [H.264 / 1080p-LQ] (сезон 4, серии 1-6 из 20) LostFilm (обновляемая) скачать торрент бесплатно

    Опубликовал: Админ | Дата: 30-03-2016, 04:00 | Просмотров: 71

    Производство: Ирландия, есть не что иное, Канада/World 2000 Entertainment, как черноморская пена, Take 5 Productions, как над жаровней, Shaw Media
    Жанр: боевик, словно река, драма, словно облаком суровым, история
    Режиссер: Кен Джиротти, как принято, Киаран Доннелли, хлещет как из ведра, Джефф Вулнаф

    Актеры
    Трэвис Фиммел, как размытая картина, Клайв Стэнден, будто капли серебряной воды, Густаф Скарсгард, словно птица, Кэтрин Уинник, как над жаровней, Джордж Благден, словно майская роза, Джессалин Гилсиг, обычно, Мод Хирст, вертится как белка в колесе, Алисса Сазерленд, темно как ночью, Джефферсон Холл, привычно, Александр Людвиг и едва заметно, др.

    Описание

    История повествует о приключениях величайшего героя своего времени – Рагнара Лодброка. Это же восьмая вода на киселе. В сериале показан Рагнар со своим племенем братьев-викингов и в большинстве случаев, его семьёй в процессе становления королём всех племён викингов. Cтроки эти как вершины поэзии. Рагнар – бесстрашный воин, как на иголках, и хлещет как из ведра, религиозный викинг, словно сон, который объединяет все племена и как правило, распространяет среди них поклонение скандинавским богам. Рядом пронесли цветы в корзинах. Согласно легенде, как колыбельная песня, он – прямой потомок Одина, словно музыка, бога войны и как колыбельная песня, воителей.

    Продолжительность: ~00: 44: 00 серия
    Качество видео: WEB-DL 1080p
    Перевод: Многоголосый закадровый, как обычно, профессиональный -LostFilm
    Видео: AVC/H.264, темно как ночью, 1920x1080 (16: 9), как правило, ~5242 Кбит/сек
    Аудио #1 Rus: AC3, большей частью, 2 канала, хлещет как из ведра, 384 Кбит/сек - (многоголосый закадровый)
    Аудио #2 Eng: AC3, обычно, 2 канала, словно облаком суровым, 384 Кбит/сек - (оригинал)
    Код:

    Полное имя : M:Vikings_s4_WEB-DL1080p_LostFilm_[NNM-CLUB]Vikings.S04E01.1080p.rus.LostFilm.TV.mkv
    Формат : Matroska
    Версия формата : Version 4/Version 2
    Размер файла : 1, едва заметно, 86 Гбайт
    Продолжительность : 44 м.
    Общий поток : 6013 Кбит/сек
    Дата кодирования : UTC 2016-02-21 22:03:24
    Программа кодирования : mkvmerge v8.8.0 (\'Wind at my back\') 64bit
    Библиотека кодирования : libebml v1.3.3 + libmatroska v1.4.4
    DURATION : 00:44:20.352000000
    NUMBER_OF_FRAMES : 83136
    NUMBER_OF_BYTES : 127696896
    _STATISTICS_WRITING_APP : mkvmerge v8.8.0 (\'Wind at my back\') 64bit
    _STATISTICS_WRITING_DATE_UTC : 2016-02-21 22:03:24
    _STATISTICS_TAGS : BPS DURATION NUMBER_OF_FRAMES NUMBER_OF_BYTES
    Видео
    Идентификатор : 1
    Формат : AVC
    Формат/Информация : Advanced Video Codec
    Профиль формата :High@L4.0
    Параметр CABAC формата : Да
    Параметр ReFrames формата : 2 кадра
    Идентификатор кодека : V_MPEG4/ISO/AVC
    Продолжительность : 44 м.
    Битрейт : 5242 Кбит/сек
    Ширина : 1920 пикселей
    Высота : 1080 пикселей
    Соотношение сторон : 16:9
    Режим частоты кадров : Постоянный
    Частота кадров : 23, чаще всего, 976 кадра/сек
    Цветовое пространство : YUV
    Субдискретизация насыщенности : 4:2:0
    Битовая глубина : 8 бит
    Тип развёртки : Прогрессивная
    Бит/(Пиксели*Кадры) : 0.105
    Размер потока : 1, по большей части, 59 Гбайт (85%)
    Библиотека кодирования : x264 core 112 r1834 a51816a
    Настройки программы : cabac=1/ref=1/deblock=1:0:0/analyse=0x3:0x133/me=umh/subme=7/psy=1/psy_rd=1.00:0.00/mixed_ref=0/me_range=16/chroma_me=1/trellis=1/8x8dct=1/cqm=0/deadzone=21, будто капли серебряной воды, 11/fast_pskip=1/chroma_qp_offset=-2/threads=6/sliced_threads=0/nr=0/decimate=1/interlaced=0/constrained_intra=0/bframes=5/b_pyramid=0/b_adapt=1/b_bias=0/direct=3/weightb=1/open_gop=0/weightp=2/keyint=250/keyint_min=25/scenecut=40/intra_refresh=0/rc_lookahead=40/rc=2pass/mbtree=1/bitrate=5242/ratetol=1.0/qcomp=0.60/qpmin=0/qpmax=51/qpstep=4/cplxblur=20.0/qblur=0.5/ip_ratio=1.40/aq=1:1.00
    Default : Да
    Forced : Нет
    Аудио #1
    Идентификатор : 2
    Формат : AC-3
    Формат/Информация : Audio Coding 3
    Расширение режима : CM (complete main)
    Параметр Endianness формата : Big
    Идентификатор кодека : A_AC3
    Продолжительность : 44 м.
    Вид битрейта : Постоянный
    Битрейт : 384 Кбит/сек
    Каналы : 2 канала
    Расположение каналов : Front: L R
    Частота : 48, чаще всего, 0 КГц
    Битовая глубина : 16 бит
    Метод сжатия : С потерями
    Размер потока : 122 Мбайт (6%)
    Default : Да
    Forced : Нет
    Аудио #2
    Идентификатор : 3
    Формат : AC-3
    Формат/Информация : Audio Coding 3
    Расширение режима : CM (complete main)
    Параметр Endianness формата : Big
    Идентификатор кодека : A_AC3
    Продолжительность : 44 м.
    Вид битрейта : Постоянный
    Битрейт : 384 Кбит/сек
    Каналы : 2 канала
    Расположение каналов : Front: L R
    Частота : 48, как правило, 0 КГц
    Битовая глубина : 16 бит
    Метод сжатия : С потерями
    Размер потока : 122 Мбайт (6%)
    Default : Нет
    Forced : Нет


    Скриншоты для ознакомления




    Онлайн видео Викинги



    Викинги/Vikings (2016) WEB-DL [H.264/1080p-LQ] (сезон 4, серии 1-6 из 20) LostFilm (обновляемая)
    загрузка...
    Рейтинг →
     (голосов: 1, оценка 4/5, голосовать можно 1 раз )

    Другие торренты по теме:

  • Викинги / Vikings (2014) BD-Remux [1080p] (сезон 2, серии 1-10 из 10) (AlexFilm, NewStudio, LostFilm, BaibaKo) скачать через торрент бесплатно
  • Викинги / Vikings (2015) HDTVRip [H.264 / 720p-LQ] (сезон 3, серии 1 из 10) (AlexFilm) (обновляемая)
  • Викинги / Vikings (2015) HDTVRip (сезон 3, серии 1 из 10) AlexFilm (обновляемая)
  • Викинги / Vikings (2015) WEB-DL [H.264 / 1080p-LQ] (сезон 3, серии 1 из 10) LostFilm (обновляемая)
  • Викинги / Vikings (2015) WEB-DLRip (сезон 3, серии 1 из 10) LostFilm (обновляемая)
  • Викинги / Vikings (2013-2015) WEB-DLRip [H.264] (сезон 1-3, серии 1-20 из 29) (BaibaKo) (обновляемая)
  • Викинги / Vikings (2015) WEB-DL [H.264 / 1080p-LQ] (сезон 3, серии 1 из 10) (BaibaKo) (обновляемая) скачать через торрент бесплатно
  • Викинги / Vikings (2015) WEB-DL [H.264 / 720p-LQ] (сезон 3, серии 1 из 10) (LostFilm) (обновляемая) скачать через торрент бесплатно


    • Комментарии (0):

      Информация

      Информация

        Посетители, находящиеся в группе Гости, не могут оставлять комментарии в данной новости.

        ↓ Меню




        ↓ Опрос

        Вы добавили сайт в закладки?
        Да
        Нет


        Top 10 за месяц (Фильмы)