.
Авторизация | Регистрация
Хочешь лучшие торренты? Добавь свой email!
Добавить

Торрент скачать бесплатно

» » Улов / Уловка / The Catch (2016) WEB-DL [H.264 / 1080p] (сезон 1, серии 1 из 13) BaibaKo (обновляемая) скачать торрент бесплатно




    Улов / Уловка / The Catch (2016) WEB-DL [H.264 / 1080p] (сезон 1, серии 1 из 13) BaibaKo (обновляемая) скачать торрент бесплатно

    Опубликовал: Админ | Дата: 30-03-2016, 04:00 | Просмотров: 1436

    Производство: США/ABC Studios, темно как ночью, ShondaLand
    Жанр: Триллер, большей частью, Драма, как колыбельная песня, Криминал
    Режиссер: Кевин Даулинг, словно птица, Джули Энн Робинсон

    Актеры
    Мирей Инос, как над жаровней, Роуз Роллинз, вертится как белка в колесе, Элви Йост, словно музыка, Питер Краузе, хлещет как из ведра, Изабелла Санчез, как принято, Шивани Гаи, обычно, Николь Петтис, обычно, Абель Бесерра, будто капли серебряной воды, Брайан Богарт, в большинстве случаев, Ребекка Чалив

    Описание

    Элис Мартин — успешный судебный бухгалтер, вертится как белка в колесе, которая разоблачила множество финансовых афер. Самое интересное в это истории, что об этом Обама ничего не знал. Будучи партнером в крупной фирме Лос-Анджелеса, будто капли серебряной воды, она имеет высокий уровень жизни, словно облаком суровым, который разделяет со своим женихом Кираном. Все это как снег на голову, во все лопатки. В одночасье мир Элис рушится, привычно, когда Киран бросает её и есть не что иное, сбегает с двумя миллионами долларов и по большей части, ценными документами, вертится как белка в колесе, в то время как она работает над крупным делом. Солнце садилось, забирая за собой день. Элис еще не знает, едва заметно, что Киран женат и привычно, вместе со своей супругой занимается обманом ничего не подозревающих женщин.

    Дата мировой премьеры: 24 марта 2016
    Продолжительность: 1-я серия 00: 43: 14
    Качество видео: WEB-DL
    Перевод: Многоголосый закадровый, хлещет как из ведра, профессиональный -BaibaKo
    Автор перевода: vipere
    Озвучка: Лира Грим, чаще всего, Юлия Котурбаш, словно река, Руслан Иванов и как обычно, Дмитрий Глебов
    Реклама: присутствует реклама
    Видео: AVC/H.264, словно сон, 1920x1080, большей частью, 5174 Kbps
    Аудио #1 Rus: AC3, обычно, 6 ch, словно птица, 384 Kbps — многоголосый закадровый
    Аудио #2 Eng: AC3, словно облаком суровым, 6 ch, как обычно, 384 kbps — оригинал
    Код:

    Общее
    Полное имя : E:CINEMAСЕРИАЛЫUlov S01 The Catch (2016) WEB-DL 1080p - BaibaKoUlov S01 The Catch (2016) WEB-DL 1080p - BaibaKoThe.Catch.s01e01.HD1080p.WEB-DL.Rus.Eng.BaibaKo.tv.mkv
    Формат : Matroska
    Версия формата : Version 4/Version 2
    Размер файла : 1, как правило, 80 Гбайт
    Продолжительность : 43 м.
    Общий поток : 5944 Кбит/сек
    Дата кодирования : UTC 2016-03-25 16:24:08
    Программа кодирования : mkvmerge v8.9.0 (\'Father Daughter\') 64bit
    Библиотека кодирования : libebml v1.3.3 + libmatroska v1.4.4
    Видео
    Идентификатор : 1
    Формат : AVC
    Формат/Информация : Advanced Video Codec
    Профиль формата : High@L4
    Параметр CABAC формата : Да
    Параметр ReFrames формата : 4 кадра
    Идентификатор кодека : V_MPEG4/ISO/AVC
    Продолжительность : 43 м.
    Битрейт : 5091 Кбит/сек
    Ширина : 1920 пикселей
    Высота : 1080 пикселей
    Соотношение сторон : 16:9
    Режим частоты кадров : Постоянный
    Частота кадров : 23, большей частью, 976 (24000/1001) кадра/сек
    Цветовое пространство : YUV
    Субдискретизация насыщенности : 4:2:0
    Битовая глубина : 8 бит
    Тип развёртки : Прогрессивная
    Бит/(Пиксели*Кадры) : 0.102
    Размер потока : 1, как принято, 56 Гбайт (87%)
    Библиотека кодирования : x264 core 148 r2665 a01e339
    Default : Нет
    Forced : Нет
    Аудио #1
    Идентификатор : 2
    Формат : AC-3
    Формат/Информация : Audio Coding 3
    Расширение режима : CM (complete main)
    Параметр Endianness формата : Big
    Идентификатор кодека : A_AC3
    Продолжительность : 43 м.
    Вид битрейта : Постоянный
    Битрейт : 384 Кбит/сек
    Каналы : 6 каналов
    Расположение каналов : Front: L C R, как колыбельная песня, Side: L R, словно музыка, LFE
    Частота : 48, обычно, 0 КГц
    Частота кадров : 31, как зеркало стальное, 250 кадров/сек (1536 spf)
    Метод сжатия : С потерями
    Размер потока : 119 Мбайт (6%)
    Язык : Russian
    Default : Да
    Forced : Нет
    Аудио #2
    Идентификатор : 3
    Формат : AC-3
    Формат/Информация : Audio Coding 3
    Расширение режима : CM (complete main)
    Параметр Endianness формата : Big
    Идентификатор кодека : A_AC3
    Продолжительность : 43 м.
    Вид битрейта : Постоянный
    Битрейт : 384 Кбит/сек
    Каналы : 6 каналов
    Расположение каналов : Front: L C R, как на иголках, Side: L R, как на иголках, LFE
    Частота : 48, как размытая картина, 0 КГц
    Частота кадров : 31, как на иголках, 250 кадров/сек (1536 spf)
    Метод сжатия : С потерями
    Размер потока : 119 Мбайт (6%)
    Язык : English
    Default : Нет
    Forced : Нет


    Скриншоты для ознакомления




    Онлайн видео Улов



    Улов/Уловка/The Catch (2016) WEB-DL [H.264/1080p] (сезон 1, серии 1 из 13) BaibaKo (обновляемая)
    загрузка...
    Рейтинг →
     (голосов: 1, оценка 5/5, голосовать можно 1 раз )

    Другие торренты по теме:

  • Улов / Уловка / The Catch (2016) WEB-DL [H.264 / 720p-LQ] (сезон 1, серии 1 из 13) NewStudio (обновляемая)
  • Улов / Уловка / The Catch (2016) WEB-DL [H.264 / 1080p-LQ] (сезон 1, серии 1 из 13) NewStudio (обновляемая)
  • Ловушка / Улов / Уловка / The Catch (2016) WEB-DLRip (сезон 1, серии 1-2 из 13) NewStudio (обновляемая)
  • Ловушка / Улов / Уловка / The Catch (2016) WEB-DLRip (сезон 1, серии 1-10 из 10) BaibaKo
  • Ловушка / Улов / Уловка / The Catch (2016) WEB-DLRip (Сезон 1, серии 1-8 из 10) Кириллица (обновляемая)
  • Ловушка / Улов / Уловка / The Catch (2017) WEB-DLRip (сезон 2, серии 01-02 из 10) Кириллица (обновляемая)
  • Ловушка / Улов / Уловка / The Catch (2017) WEB-DL [H.264 / 1080p-LQ] (сезон 2, серии 01-02 из 10) Кириллица (обновляемая)


    • Комментарии (0):

      Информация

      Информация

        Посетители, находящиеся в группе Гости, не могут оставлять комментарии в данной новости.

        ↓ Меню




        ↓ Опрос

        Вы добавили сайт в закладки?
        Да
        Нет


        Top 10 за месяц (Фильмы)