.
Авторизация | Регистрация
Хочешь лучшие торренты? Добавь свой email!
Добавить

Торрент скачать бесплатно

» » Перевозчик (2015) HDTVRip (сезон 1, серия 1-2 из 16) Обновляемая торрент скачать бесплатно




    Перевозчик (2015) HDTVRip (сезон 1, серия 1-2 из 16) Обновляемая торрент скачать бесплатно

    Опубликовал: Админ | Дата: 30-03-2016, 04:00 | Просмотров: 24

    Производство: Россия/Центр кинопроизводства, Форвард фильм
    Жанр: Боевик, Детектив
    Режиссер: Сергей Полянский

    Актеры
    Алексей Комашко, Николай Козак, Денис Рожков, Алексей Матошин, Игорь Баголей, Александр Кузьмин, Андрей Курилов, Юрий Лебедев, Бесо Гатаев, Дмитрий Янышевский, Камал Гасанов, Максим Деричев и др.

    Описание

    Драматическая история закрутится вокруг Игоря Грановского — положительного во всех смыслах парня — надежного друга, любящего мужа, заботливого отца. Игорь Грановский и два его друга детства работают инкассаторами. Они везут огромную сумму, для зарплаты местного градообразующего комбината… Это последнее, что помнит Игорь. Он приходит в сознание от жуткой головной боли, у него серьезная черепно-мозговая травма, он на больничной койке, а вокруг полицейские. Что произошло? Как он здесь оказался? Где его товарищи Сысоев и Чесноков? На эти вопросы есть ответы у начальника УГРО — гражданин Грановский обвиняется в убийстве своих коллег и похищении денег. Он под арестом. И для облегчения своей вины, ему лучше здесь и сейчас признаться куда он спрятал похищенные миллионы…

    Дата российской премьеры: 28 марта 2016 (НТВ)
    Продолжительность: ~ 00: 45: 00 серия
    Качество видео: HDTVRip
    Видео: XviD, 720x400, ~1500 Кбит/сек
    Аудио: AC3, 192 Кбит/сек, 2 канала, 48 kHz, CBR
    Код:

    General
    Complete name : D:Perevozchik.2015.HDTVRip1.Perevozchik.2015.HDTVRip.avi
    Format : AVI
    Format/Info : Audio Video Interleave
    File size : 550 MiB
    Duration : 45mn 22s
    Overall bit rate : 1 696 Kbps
    Writing application : VirtualDubModRus 1.5.10.2 (build 2542/release)
    Writing library : VirtualDubMod build 2542/release
    Video
    ID : 0
    Format : MPEG-4 Visual
    Format profile : Advanced Simple@L5
    Format settings, BVOP : 1
    Format settings, QPel : No
    Format settings, GMC : No warppoints
    Format settings, Matrix : Custom
    Codec ID : XVID
    Codec ID/Hint : XviD
    Duration : 45mn 22s
    Bit rate : 1 494 Kbps
    Width : 720 pixels
    Height : 400 pixels
    Display aspect ratio : 16:9
    Frame rate : 25.000 fps
    Color space : YUV
    Chroma subsampling : 4:2:0
    Bit depth : 8 bits
    Scan type : Progressive
    Compression mode : Lossy
    Bits/(Pixel*Frame) : 0.208
    Stream size : 485 MiB (88%)
    Writing library : XviD 73
    Audio
    ID : 1
    Format : AC-3
    Format/Info : Audio Coding 3
    Mode extension : CM (complete main)
    Format settings, Endianness : Big
    Codec ID : 2000
    Duration : 45mn 22s
    Bit rate mode : Constant
    Bit rate : 192 Kbps
    Channel(s) : 2 channels
    Channel positions : Front: L R
    Sampling rate : 48.0 KHz
    Frame rate : 31.250 fps (1536 spf)
    Compression mode : Lossy
    Stream size : 62.3 MiB (11%)
    Alignment : Split accross interleaves
    Interleave, duration : 40 ms (1.00 video frame)
    Interleave, preload duratio : 500 ms


    Скриншоты для ознакомления




    Онлайн видео Перевозчик (2015) HDTVRip (сезон любимого сериала 1, серия 1



    Перевозчик (2015) HDTVRip (сезон 1, серия 1-2 из 16) Обновляемая
    загрузка...
    Рейтинг →
     (голосов: 1, оценка 4/5, голосовать можно 1 раз )

    Другие торренты по теме:

  • Перевозчик / Transporter: The Series (2014) HDTVRip (сезон 2, серии 1 из 12) BaibaKo (oбновляемая)
  • Перевозчик / Transporter: The Series (2014) HDTVRip [H.264 / 720p-LQ] (Сезон 2, серия 1 из 12) (LostFilm) (обновляемая) скачать через торрент бесплатно
  • Перевозчик / Transporter: The Series (2014) HDTVRip (сезон 2, серии 1 из 12) LostFilm (oбновляемая) скачать через торрент бесплатно


    • Комментарии (0):

      Информация

      Информация

        Посетители, находящиеся в группе Гости, не могут оставлять комментарии в данной новости.

        ↓ Меню




        ↓ Опрос

        Вы добавили сайт в закладки?
        Да
        Нет


        Top 10 за месяц (Фильмы)