.
Авторизация | Регистрация
Хочешь лучшие торренты? Добавь свой email!
Добавить

Торрент скачать бесплатно

» » Атлантида / Atlantis (2014) WEB-DLRip / BDRip (сезон 2, серии 1-13 из 13) BaibaKo торрент скачать бесплатно




    Атлантида / Atlantis (2014) WEB-DLRip / BDRip (сезон 2, серии 1-13 из 13) BaibaKo торрент скачать бесплатно

    Опубликовал: Админ | Дата: 30-03-2016, 04:00 | Просмотров: 28

    Производство: Великобритания
    Жанр: фэнтези
    Режиссер: Джастин Молотников, Деклан О’Двайр, Элис Тротон

    Актеры
    Марк Эдди, Джо Диксон, Джек Доннелли, Роберт Эммс, Аийша Харт, Сара Пэриш, Джемайма Рупер, Джордж Саввидес, Джульет Стивенсон и др.

    Описание

    Молодой Ясон в наше время отправляется на поиски своего отца, но оказывается выброшенным на берег таинственной земли. Прикольно все это наверно придумал Китай потратив достаточно времени. Город Атлантида — это древний мир мифических существ, оракулов-предсказателей, богинь со змеями вместо волос и настолько огромных дворцов, что поговаривают, будто они построены великанами. Но вскоре Ясон оказывается втянут в смертельный ритуал, от которого нет спасения...

    Продолжительность: ~00: 43: 00 серия
    Качество видео: WEB-DLRip/BDRip
    Перевод: Многоголосый закадровый, профессиональный -BaibaKo
    Автор перевода: vipere
    Озвучка: Юлия Котурбаш, Алексей Кузнецов, Владимир Курдов и Виталий Ткаченко
    Видео: XviD, 720х400 (16: 9), ~1500 kb/s
    Аудио Rus: MPEG Layer 3, 48, 0 kHz, 2 ch, 192 kb/s - многоголосый закадровый
    Аудио Eng: MPEG Layer 3, 48, 0 kHz, 2 ch, 192 kb/s - оригинал
    Общее
    Полное имя : D: Атлантида (сезон любимого сериала 2) Atlantis (2014) WEB-DLRip - BaibaKoAtlantis.s02e01.WEB-DLRip.XviD.Rus.Eng.BaibaKo.tv.avi
    Формат : AVI
    Формат/Информация : Audio Video Interleave
    Размер файла : 578 Мбайт
    Продолжительность : 42 м.
    Общий поток : 1900 Кбит/сек
    Программа кодирования : VirtualDubMod 1.5.10.2 (build 2540/release)
    Библиотека кодирования : VirtualDubMod build 2540/release
    Видео
    Идентификатор : 0
    Формат : MPEG-4 Visual
    Профиль формата : Advanced Simple@L5
    Параметр BVOP формата : 2
    Параметр QPel формата : Нет
    Параметр GMC формата : Без точки перехода
    Параметр матрицы формата : Default (H.263)
    Идентификатор кодека : XVID
    Идентификатор кодека/Подсказка : XviD
    Продолжительность : 42 м.
    Битрейт : 1502 Кбит/сек
    Ширина : 720 пикселей
    Высота : 400 пикселей
    Соотношение сторон : 16: 9
    Частота кадров : 25, 000 кадров/сек
    Цветовое пространство : YUV
    Субдискретизация насыщенности : 4: 2: 0
    Битовая глубина : 8 бит
    Тип развёртки : Прогрессивная
    Метод сжатия : С потерями
    Бит/(Пиксели*Кадры) : 0.209
    Размер потока : 457 Мбайт (79%)
    Библиотека кодирования : XviD 1.2.1 (UTC 2008-12-04)
    Аудио #1
    Идентификатор : 1
    Формат : MPEG Audio
    Версия формата : Version 1
    Профиль формата : Layer 3
    Режим : Joint stereo
    Расширение режима : MS Stereo
    Идентификатор кодека : 55
    Идентификатор кодека/Подсказка : MP3
    Продолжительность : 42 м.
    Вид битрейта : Постоянный
    Битрейт : 192 Кбит/сек
    Каналы : 2 канала
    Частота : 48, 0 КГц
    Метод сжатия : С потерями
    Размер потока : 58, 4 Мбайт (10%)
    Выравнивание : Соединение по промежуткам
    Продолжительность промежутка : 40 мс. (1, 00 видеокадр)
    Время предзагрузки промежутка : 504 мс.
    Библиотека кодирования : LAME3.99.5ЄЄЄЄЄЄЄЄЄЄ
    Аудио #2
    Идентификатор : 2
    Формат : MPEG Audio
    Версия формата : Version 1
    Профиль формата : Layer 3
    Режим : Joint stereo
    Идентификатор кодека : 55
    Идентификатор кодека/Подсказка : MP3
    Продолжительность : 42 м.
    Вид битрейта : Постоянный
    Битрейт : 192 Кбит/сек
    Каналы : 2 канала
    Частота : 48, 0 КГц
    Метод сжатия : С потерями
    Размер потока : 58, 4 Мбайт (10%)
    Выравнивание : Соединение по промежуткам
    Продолжительность промежутка : 40 мс. (1, 00 видеокадр)
    Время предзагрузки промежутка : 504 мс.
    Библиотека кодирования : LAME3.99.5ЄЄЄЄЄЄЄЄЄЄ


    Скриншоты для ознакомления




    Онлайн видео Атлантида



    Атлантида/Atlantis (2014) WEB-DLRip/BDRip (сезон 2, серии 1-13 из 13) BaibaKo
    загрузка...
    Рейтинг →
     (голосов: 1, оценка 4/5, голосовать можно 1 раз )

    Другие торренты по теме:

  • Атлантида / Atlantis (2014) WEB-DLRip (сезон 2, серии 1-3 из ) BaibaKo (обновляемая)
  • Атлантида (Atlantis) / (Сезон 2, серии 1-4 из ) BaibaKo (2014) [MP4|1280x718] <WEB-DLRip H.264>
  • Атлантида (Atlantis) / (Сезон 1, серии 1-13 из 13) BaibaKo (2013) [MP4|1280x720] <HDTVRip H.264>
  • NG: Подъем Атлантиды (Открытая Атлантида) / Atlantis rising (2017) HDTVRip [H.264 / 720p-LQ]
  • Atlantis 2: Beyond Atlantis / Атлантида 2 (1999) [Multi] (1.0) License GOG
  • Звёздные Врата: Атлантида. Опознание + Миссия «Пегас» / Stargate: Atlantis. Identity + Pegasus Mission (2011, 2012) WEBRip [H.264 / 720p-LQ] (А. Домнина) [Фанфильм]
  • Atlantis Pearls of the Deep / Атлантида: Жемчужины Глубин 5.2 [Ru] скачать через торрент бесплатно
  • Атлантида Русского Севера / Atlantis of the Russian North (2015) WEBRip [H.264] [MP4|1280x720] скачать через торрент бесплатно


    • Комментарии (0):

      Информация

      Информация

        Посетители, находящиеся в группе Гости, не могут оставлять комментарии в данной новости.

        ↓ Меню




        ↓ Опрос

        Вы добавили сайт в закладки?
        Да
        Нет


        Top 10 за месяц (Фильмы)