.
Авторизация | Регистрация
Хочешь лучшие торренты? Добавь свой email!
Добавить

Торрент скачать бесплатно

» » Улов / Уловка / The Catch (2016) WEB-DL [H.264 / 1080p-LQ] (сезон 1, серии 1 из 13) NewStudio (обновляемая) торрент скачать бесплатно




    Улов / Уловка / The Catch (2016) WEB-DL [H.264 / 1080p-LQ] (сезон 1, серии 1 из 13) NewStudio (обновляемая) торрент скачать бесплатно

    Опубликовал: Админ | Дата: 29-03-2016, 04:00 | Просмотров: 1235

    Производство: США/ABC Studios, ShondaLand
    Жанр: Триллер, Драма, Криминал
    Режиссер: Кевин Даулинг, Джули Энн Робинсон

    Актеры
    Мирей Инос, Роуз Роллинз, Элви Йост, Питер Краузе, Изабелла Санчез, Шивани Гаи, Николь Петтис, Абель Бесерра, Брайан Богарт, Ребекка Чалив

    Описание

    Элис Мартин — успешный судебный бухгалтер, которая разоблачила множество финансовых афер. Будучи партнером в крупной фирме Лос-Анджелеса, она имеет высокий уровень жизни, который разделяет со своим женихом Кираном. В одночасье мир Элис рушится, когда Киран бросает её и сбегает с двумя миллионами долларов и ценными документами, в то время как она работает над крупным делом. Элис еще не знает, что Киран женат и вместе со своей супругой занимается обманом ничего не подозревающих женщин.

    Дата мировой премьеры: 24 марта 2016
    Продолжительность: ~00: 42: 00 серия
    Качество видео: WEB-DL
    Перевод: Многоголосый закадровый, профессиональный -NewStudio
    Автор перевода: Ирина Гвозденко
    Видео: AVC/H.264, 1920x1080 (16: 9), 5192 Kbps
    Аудио #1 Rus: AC3, 6 ch, 384 Kbps — многоголосый закадровый
    Аудио #2 Eng: AC3, 6 ch, 384 kbps — оригинал
    Код:

    Общее
    Полное имя : E:CINEMAСЕРИАЛЫUlov S01 The Catch (2016) WEB-DL 1080p - NewStudioUlov S01 The Catch (2016) WEB-DL 1080p - NewStudioThe.Catch.s01e01.WEBDL.1080p.NewStudio.TV.mkv
    Формат : Matroska
    Версия формата : Version 4/Version 2
    Размер файла : 1, 79 Гбайт
    Продолжительность : 42 м.
    Общий поток : 5960 Кбит/сек
    Дата кодирования : UTC 2016-03-25 20:49:01
    Программа кодирования : mkvmerge v8.2.0 (\'World of Adventure\') 64bit
    Библиотека кодирования : libebml v1.3.1 + libmatroska v1.4.2
    Видео
    Идентификатор : 1
    Формат : AVC
    Формат/Информация : Advanced Video Codec
    Профиль формата : High@L4
    Параметр CABAC формата : Да
    Параметр ReFrames формата : 4 кадра
    Идентификатор кодека : V_MPEG4/ISO/AVC
    Продолжительность : 42 м.
    Битрейт : 5192 Кбит/сек
    Ширина : 1920 пикселей
    Высота : 1080 пикселей
    Соотношение сторон : 16:9
    Режим частоты кадров : Постоянный
    Частота кадров : 23, 976 (24000/1001) кадра/сек
    Цветовое пространство : YUV
    Субдискретизация насыщенности : 4:2:0
    Битовая глубина : 8 бит
    Тип развёртки : Прогрессивная
    Бит/(Пиксели*Кадры) : 0.104
    Размер потока : 1, 56 Гбайт (87%)
    Язык : English
    Default : Да
    Forced : Нет
    Цветовой диапазон : Limited
    Основные цвета : BT.709
    Характеристики трансфера : BT.709
    Коэффициенты матрицы : BT.709
    Аудио #1
    Идентификатор : 2
    Формат : AC-3
    Формат/Информация : Audio Coding 3
    Расширение режима : CM (complete main)
    Параметр Endianness формата : Big
    Идентификатор кодека : A_AC3
    Продолжительность : 42 м.
    Вид битрейта : Постоянный
    Битрейт : 384 Кбит/сек
    Каналы : 6 каналов
    Расположение каналов : Front: L C R, Side: L R, LFE
    Частота : 48, 0 КГц
    Частота кадров : 31, 250 кадров/сек (1536 spf)
    Метод сжатия : С потерями
    Размер потока : 118 Мбайт (6%)
    Язык : Russian
    Default : Да
    Forced : Да
    Аудио #2
    Идентификатор : 3
    Формат : AC-3
    Формат/Информация : Audio Coding 3
    Расширение режима : CM (complete main)
    Параметр Endianness формата : Big
    Идентификатор кодека : A_AC3
    Продолжительность : 42 м.
    Вид битрейта : Постоянный
    Битрейт : 384 Кбит/сек
    Каналы : 6 каналов
    Расположение каналов : Front: L C R, Side: L R, LFE
    Частота : 48, 0 КГц
    Частота кадров : 31, 250 кадров/сек (1536 spf)
    Метод сжатия : С потерями
    Задержка видео : 12 мс.
    Размер потока : 118 Мбайт (6%)
    Язык : English
    Default : Нет
    Forced : Нет


    Скриншоты для ознакомления




    Онлайн видео Улов



    Улов/Уловка/The Catch (2016) WEB-DL [H.264/1080p-LQ] (сезон 1, серии 1 из 13) NewStudio (обновляемая)
    загрузка...
    Рейтинг →
     (голосов: 1, оценка 4/5, голосовать можно 1 раз )

    Другие торренты по теме:

  • Улов / Уловка / The Catch (2016) WEB-DL [H.264 / 720p-LQ] (сезон 1, серии 1 из 13) NewStudio (обновляемая)
  • Улов / Уловка / The Catch (2016) WEB-DL [H.264 / 1080p] (сезон 1, серии 1 из 13) BaibaKo (обновляемая)
  • Ловушка / Улов / Уловка / The Catch (2016) WEB-DLRip (сезон 1, серии 1-2 из 13) NewStudio (обновляемая)
  • Ловушка / Улов / Уловка / The Catch (2016) WEB-DLRip (сезон 1, серии 1-10 из 10) BaibaKo
  • Ловушка / Улов / Уловка / The Catch (2016) WEB-DLRip (Сезон 1, серии 1-8 из 10) Кириллица (обновляемая)
  • Ловушка / Улов / Уловка / The Catch (2017) WEB-DLRip (сезон 2, серии 01-02 из 10) Кириллица (обновляемая)
  • Ловушка / Улов / Уловка / The Catch (2017) WEB-DL [H.264 / 1080p-LQ] (сезон 2, серии 01-02 из 10) Кириллица (обновляемая)


    • Комментарии (0):

      Информация

      Информация

        Посетители, находящиеся в группе Гости, не могут оставлять комментарии в данной новости.

        ↓ Меню




        ↓ Опрос

        Вы добавили сайт в закладки?
        Да
        Нет


        Top 10 за месяц (Фильмы)