.
Авторизация | Регистрация
Хочешь лучшие торренты? Добавь свой email!
Добавить

Торрент скачать бесплатно

» » Мент в законе - 9 (2014) HDTVRip (сезон 9, серия 1-4 из 44) (Обновляемая) торрент скачать бесплатно




    Мент в законе - 9 (2014) HDTVRip (сезон 9, серия 1-4 из 44) (Обновляемая) торрент скачать бесплатно

    Опубликовал: Админ | Дата: 29-03-2016, 04:00 | Просмотров: 64

    Производство: Россия/Центр кинопроизводства, Форвард фильм
    Жанр: Детектив
    Режиссер: Игорь Ромащенко, Николай Денисов

    Актеры
    Сергей Плотников, Михаил Бабичев, Антон Сёмкин, Сергей Пиотровский, Юлия Яблонская, Константин Глушков, Иван Соловьев, Дмитрий Блохин, Владислав Котлярский, Павел Мисаилов, Антон Ескин, Алексей Шемес, Валерий Зинов, Андрей Касницкий, Александр Штендлер, Дмитрий Савкин, Владимир Завикторин, Виктор Конухин, Поля Полякова, Юрий Соколов, Оксана Лунина, Ярослав Хорошков, Александр Сергеев

    Описание

    Несмотря на все старания Степана Кручи и его верных боевых товарищей преступность в Битово не хочет уступать свои позиции. Покой Степану только снится. Подполковнику предстоит столкнуться с доселе невиданными в его районе преступлениями и старыми заклятыми врагами. В Битовском районе переполох - все местные газеты и телевиденье кричат о благородном разбойнике, Робин Гуде местного разлива. Герой специализируется на убийстве и грабеже бизнесменов, чьи имена запятнаны грязными делишками. Похищенные у бизнесменов деньги и ценности он раздает на благотворительные нужды. Но Степан Круча повидал уже многое, чтобы поверить в эту сказку. Стараниями Кручи благородный разбойник показывает свое истинное лицо: его благородные цели - лишь прикрытие. Предстоит подполковнику свести счеты и с бандой автомошенников, перешедших последнюю черту закона - убито несколько владельцев машин. Да и заклятый враг Кручи - Сафон тоже не сидит сложа руки. Прикольно все это наверно придумал Папа Римский потратив достаточно времени. Вызволив сына из тюрьмы, Сафон помогает Егору открыть свой бизнес. Божий одуванчик, сказал кто то из толпы, к чему не понятно. Только бизнес этот они ведут не по законам рынка, а по бандитским понятиям. Но на каждую силу находится еще большая сила и новоявленный бизнесмен напрямую столкнется с акулами этого рынка, захватившими ключевые позиции еще в 90-х

    Дата премьеры в России: 26 марта 2016 года
    Продолжительность: ~ 00: 41: 00 серия
    Качество видео: HDTVRip
    Видео: XviD, 720x400, ~1700 Кбит/сек
    Аудио: AC3, 192 Кбит/сек, 2 канала, 48 kHz, CBR
    Код:

    General
    Complete name : D:Ment.v.zakone.9.2015.HDTVRip1.Ment.v.zakone.9.2015.HDTVRip.avi
    Format : AVI
    Format/Info : Audio Video Interleave
    File size : 555 MiB
    Duration : 41mn 29s
    Overall bit rate : 1 871 Kbps
    Writing application : VirtualDubModRus 1.5.10.2 (build 2542/release)
    Writing library : VirtualDubMod build 2542/release
    Video
    ID : 0
    Format : MPEG-4 Visual
    Format profile : Advanced Simple@L5
    Format settings, BVOP : 1
    Format settings, QPel : No
    Format settings, GMC : No warppoints
    Format settings, Matrix : Custom
    Codec ID : XVID
    Codec ID/Hint : XviD
    Duration : 41mn 29s
    Bit rate : 1 669 Kbps
    Width : 720 pixels
    Height : 400 pixels
    Display aspect ratio : 16:9
    Frame rate : 25.000 fps
    Color space : YUV
    Chroma subsampling : 4:2:0
    Bit depth : 8 bits
    Scan type : Progressive
    Compression mode : Lossy
    Bits/(Pixel*Frame) : 0.232
    Stream size : 495 MiB (89%)
    Writing library : XviD 73
    Audio
    ID : 1
    Format : AC-3
    Format/Info : Audio Coding 3
    Mode extension : CM (complete main)
    Format settings, Endianness : Big
    Codec ID : 2000
    Duration : 41mn 29s
    Bit rate mode : Constant
    Bit rate : 192 Kbps
    Channel(s) : 2 channels
    Channel positions : Front: L R
    Sampling rate : 48.0 KHz
    Frame rate : 31.250 fps (1536 spf)
    Compression mode : Lossy
    Stream size : 57.0 MiB (10%)
    Alignment : Split accross interleaves
    Interleave, duration : 40 ms (1.00 video frame)
    Interleave, preload duratio : 500 ms


    Скриншоты для ознакомления




    Онлайн видео Мент в законе



    Мент в законе - 9 (2014) HDTVRip (сезон 9, серия 1-4 из 44) (Обновляемая)
    загрузка...
    Рейтинг →
     (голосов: 1, оценка 5/5, голосовать можно 1 раз )

    Другие торренты по теме:

  • Мент в законе - 9 (2014) SATRip (сезон 9, серия 1-2 из 44) (Обновляемая)
  • Мент в законе (2014) HDTVRip (сезон 9, серий 1-44 из 44)


    • Комментарии (0):

      Информация

      Информация

        Посетители, находящиеся в группе Гости, не могут оставлять комментарии в данной новости.

        ↓ Меню




        ↓ Опрос

        Вы добавили сайт в закладки?
        Да
        Нет


        Top 10 за месяц (Фильмы)