.
Авторизация | Регистрация
Хочешь лучшие торренты? Добавь свой email!
Добавить

Торрент скачать бесплатно

» » Вечный отпуск (2016) SATRip (сезон 1, серии 1-6 из 24) (обновляемая) торрент скачать бесплатно




    Вечный отпуск (2016) SATRip (сезон 1, серии 1-6 из 24) (обновляемая) торрент скачать бесплатно

    Опубликовал: Админ | Дата: 29-03-2016, 04:00 | Просмотров: 28

    Производство: Россия, Студия Наутилус Медиа
    Жанр: Комедия
    Режиссер: Валентина Власова

    Актеры
    Константин Крюков, Валерия Федорович, Ян Цапник, Илья Лыков, Светлана Первушина, Алина Алексеева, Дмитрий Белякин, Дмитрий Астрахан, Катарина Шпиринг, Эрик Болин и др.

    Описание

    Андрей Соколов и Саша Кравцова познакомились на теплоходе. Он работал помощником капитана, а она с размахом отмечала день рождения. Вечеринка оказалась настолько зажигательной, что корабль сгорел. Андрей потерял работу, а Сашу в воспитательных целях папа-олигарх отправляет работать горничной на один из своих круизных лайнеров. Теперь ее ждет год в окружении морских пейзажей, интернациональной команды, неубранных кают и старого знакомого — ассистента директора круиза… Андрея Соколова. Это будет очень-очень долгий год.

    Дата премьеры в России: 21.03.2016
    Продолжительность: ~ 00: 24: 00 серия
    Качество видео: SATRip
    Видео: Xvid, 720х400, ~1800 Кбит/с
    Аудио: MP3, 2 ch, 192 Кбит/с
    Код:

    Общее
    Полное имя : C:UsersМаратDesktopСезон_1Вечный отпуск.1 сезон любимого сериала 1 серия.avi
    Формат : AVI
    Формат/Информация : Audio Video Interleave
    Размер файла : 354 Мбайт
    Продолжительность : 24 м.
    Общий поток : 2005 Кбит/сек
    Программа кодирования : VirtualDubMod 1.5.10.3 (build 2550/release)
    Библиотека кодирования : VirtualDubMod build 2550/release
    Видео
    Идентификатор : 0
    Формат : MPEG-4 Visual
    Профиль формата : Advanced Simple@L5
    Параметр BVOP формата : 2
    Параметр QPel формата : Нет
    Параметр GMC формата : Без точки перехода
    Параметр матрицы формата : Default (MPEG)
    Идентификатор кодека : XVID
    Идентификатор кодека/Подсказка : XviD
    Продолжительность : 24 м.
    Битрейт : 1803 Кбит/сек
    Ширина : 720 пикселей
    Высота : 400 пикселей
    Соотношение сторон : 16:9
    Частота кадров : 25, 000 кадров/сек
    Цветовое пространство : YUV
    Субдискретизация насыщенности : 4:2:0
    Битовая глубина : 8 бит
    Тип развёртки : Прогрессивная
    Метод сжатия : С потерями
    Бит/(Пиксели*Кадры) : 0.250
    Размер потока : 319 Мбайт (90%)
    Библиотека кодирования : XviD 73
    Аудио
    Идентификатор : 1
    Формат : MPEG Audio
    Версия формата : Version 1
    Профиль формата : Layer 3
    Режим : Joint stereo
    Идентификатор кодека : 55
    Идентификатор кодека/Подсказка : MP3
    Продолжительность : 24 м.
    Вид битрейта : Постоянный
    Битрейт : 192 Кбит/сек
    Каналы : 2 канала
    Частота : 48, 0 КГц
    Метод сжатия : С потерями
    Размер потока : 33, 9 Мбайт (10%)
    Выравнивание : Разделение по промежуткам
    Продолжительность промежутка : 40 мс. (1, 00 видеокадр)
    Время предзагрузки промежутка : 500 мс.


    Скриншоты для ознакомления




    Онлайн видео Вечный отпуск (2016) SATRip (сезон любимого сериала 1, серии 1



    Вечный отпуск (2016) SATRip (сезон 1, серии 1-6 из 24) (обновляемая)
    загрузка...
    Рейтинг →
     (голосов: 1, оценка 3/5, голосовать можно 1 раз )

    Другие торренты по теме:

  • Вечный отпуск (2016) WEBRip (серии 1-8 из 24) (обновляемая)
  • Вечный отпуск (2016) WEBRip [H.264] (сезон 1, серии 1-13 из 24) (обновляемая)
  • Вечный отпуск (2016) WEBRip (сезон 1, серии 1-24 из 24)


    • Комментарии (0):

      Информация

      Информация

        Посетители, находящиеся в группе Гости, не могут оставлять комментарии в данной новости.

        ↓ Меню




        ↓ Опрос

        Вы добавили сайт в закладки?
        Да
        Нет


        Top 10 за месяц (Фильмы)