.
Авторизация | Регистрация
Хочешь лучшие торренты? Добавь свой email!
Добавить

Торрент скачать бесплатно

» » Перевозчик (2015) SATRip [H.264] (серии 1-2 из 16) (обновляемая) торрент скачать бесплатно




    Перевозчик (2015) SATRip [H.264] (серии 1-2 из 16) (обновляемая) торрент скачать бесплатно

    Опубликовал: Админ | Дата: 29-03-2016, 04:00 | Просмотров: 26

    Производство: Россия/Форвард-фильм, Центр кинопроизводства
    Жанр: Боевик, Детектив
    Режиссер: Сергей Полянский

    Актеры
    Алексей Комашко, Николай Козак, Денис Рожков, Алексей Матошин, Игорь Баголей, Александр Кузьмин, Андрей Курилов, Юрий Лебедев, Бесо Гатаев, Дмитрий Янышевский, Камал Гасанов, Максим Деричев и др.

    Описание

    Драматическая история закрутится вокруг Игоря Грановского — положительного во всех смыслах парня — надежного друга, любящего мужа, заботливого отца. Игорь Грановский и два его друга детства работают инкассаторами. Бесплатный сыр, сказал кто то из толпы, к чему не понятно. Они везут огромную сумму, для зарплаты местного градообразующего комбината… Это последнее, что помнит Игорь. Он приходит в сознание от жуткой головной боли, у него серьезная черепно-мозговая травма, он на больничной койке, а вокруг полицейские. Самое интересное в это истории, что об этом Потап ничего не знал. Что произошло? Как он здесь оказался? Где его товарищи Сысоев и Чесноков? На эти вопросы есть ответы у начальника УГРО — гражданин Грановский обвиняется в убийстве своих коллег и похищении денег. Он под арестом. Самое интересное в это истории, что об этом Потап ничего не знал. И для облегчения своей вины, ему лучше здесь и сейчас признаться куда он спрятал похищенные миллионы…

    Дата российской премьеры: 28 марта 2016 (НТВ)
    Продолжительность: ~ 00: 45: 00 серия
    Качество видео: SATRip
    Реклама: присутствуют текстовые вставки рекламы.
    Видео: AVC/H.264, 720x400 (16: 9), ~1655 Кбит/сек
    Аудио: MP3, 2 ch, 128 Кбит/сек, CBR
    Код:

    Общее
    Полное имя : D:МОЯtorrentПеревозчик. 2016.SATRip(AVC)1.Seriya.mkv
    Формат : AVI
    Формат/Информация : Audio Video Interleave
    Размер файла : 579 Мбайт
    Продолжительность : 45 м.
    Режим общего битрейта : Переменный
    Общий поток : 1796 Кбит/сек
    Программа кодирования : Lavf54.63.104
    Видео
    Идентификатор : 0
    Формат : AVC
    Формат/Информация : Advanced Video Codec
    Профиль формата : Main@L3
    Параметр CABAC формата : Да
    Параметр ReFrames формата : 1 кадр
    Параметр GOP формата : M=1, N=15
    Идентификатор кодека : H264
    Продолжительность : 45 м.
    Вид битрейта : Переменный
    Битрейт : 1655 Кбит/сек
    Максимальный битрейт : 4950 Кбит/сек
    Ширина : 720 пикселей
    Высота : 400 пикселей
    Соотношение сторон : 16:9
    Частота кадров : 25, 000 кадров/сек
    Цветовое пространство : YUV
    Субдискретизация насыщенности : 4:2:0
    Битовая глубина : 8 бит
    Тип развёртки : Прогрессивная
    Бит/(Пиксели*Кадры) : 0.230
    Размер потока : 534 Мбайт (92%)
    Аудио
    Идентификатор : 1
    Формат : MPEG Audio
    Версия формата : Version 1
    Профиль формата : Layer 3
    Режим : Joint stereo
    Расширение режима : MS Stereo
    Идентификатор кодека : 55
    Идентификатор кодека/Подсказка : MP3
    Продолжительность : 45 м.
    Вид битрейта : Постоянный
    Битрейт : 128 Кбит/сек
    Каналы : 2 канала
    Частота : 48, 0 КГц
    Метод сжатия : С потерями
    Размер потока : 41, 3 Мбайт (7%)
    Выравнивание : Соединение по промежуткам
    Продолжительность промежутка : 24 мс. (0, 60 видеокадр)


    Скриншоты для ознакомления




    Онлайн видео Перевозчик (2015) SATRip [H.264] (серии 1



    Перевозчик (2015) SATRip [H.264] (серии 1-2 из 16) (обновляемая)
    загрузка...
    Рейтинг →
     (голосов: 1, оценка 3/5, голосовать можно 1 раз )

    Другие торренты по теме:

  • Перевозчик (2015) SATRip [H.264] (1-4 серия из 16) (Обновляемая)


    • Комментарии (0):

      Информация

      Информация

        Посетители, находящиеся в группе Гости, не могут оставлять комментарии в данной новости.

        ↓ Меню




        ↓ Опрос

        Вы добавили сайт в закладки?
        Да
        Нет


        Top 10 за месяц (Фильмы)