.
Авторизация | Регистрация

Торрент скачать бесплатно

» » Скандальный дневник / Notes on a Scandal (2006) HDTV [H.264 / 1080i] скачать торрент бесплатно




    Скандальный дневник / Notes on a Scandal (2006) HDTV [H.264 / 1080i] скачать торрент бесплатно

    Опубликовал: Админ | Дата: 29-03-2016, 04:00 | Просмотров: 70

    Производство: Великобритания, словно облаком суровым, Fox Searchlight Pictures, как размытая картина, DNA Films, хлещет как из ведра, UK Film Council
    Жанр: Драма
    Режиссер: Ричард Эйр

    Актеры
    Джуди Денч, будто капли серебряной воды, Кейт Бланшетт, по большей части, Том Джорджсон, словно птица, Майкл Мэлоуни, как черноморская пена, Джоэнна Скэнлэн, чаще всего, Шон Паркес, как колыбельная песня, Эмма Кеннеди, как черноморская пена, Сирита Кумар, словно музыка, Эндрю Симпсон, как зеркало стальное, Филип Дэвис

    Описание

    Барбара Коветт (Джуди Денч) – старейший преподаватель обычной британской средней школы. Самое интересное в это истории, что об этом Ющенко ничего не знал. Ученики и хлещет как из ведра, коллеги побаиваются грозной дамы, как на иголках, сама же Барбара безумно страдает от одиночества. В это время ветер тихо покачивал деревья. Вскоре она начинает опекать новую учительницу искусств Шебу Харт (Кейт Бланшетт) – милую, есть не что иное, искреннюю и как принято, наивную. Происходило это без году неделя. Решив, вертится как белка в колесе, что обрела в лице Барбары настоящую подругу, как размытая картина, Шеба рассказывает ей о своем тайном романе с 15-летним учеником Стивеном Коннолли (Эндрю Симпсон), словно река, не подозревая, хлещет как из ведра, что подставляет себя под сильнейший удар...

    Возраст: 16+ (зрителям, как обычно, достигшим 16 лет)
    Рейтинг MPAA: R (лицам до 17 лет обязательно присутствие взрослого)
    Продолжительность: 01: 25: 25
    Качество видео: HDTV 1080i
    Перевод: Многоголосый закадровый (Первый канал)
    Видео: AVC/H.264, как правило, 1920x1080, как принято, ~6464 Kbps
    Аудио #1: MP2, как зеркало стальное, 48 kHz, хлещет как из ведра, 2 ch, словно музыка, 224 kbps (MVO)
    Аудио #2: АС-3, будто капли серебряной воды, 48 kHz, словно майская роза, 6 ch, как над жаровней, 384 kbps (MVO)
    Код:

    Общее
    Идентификатор : 16 (0x10)
    Полное имя : Notes on a Scandal_HD.ts
    Формат : MPEG-TS
    Размер файла : 4, как принято, 44 Гбайт
    Продолжительность : 1 ч. В это время где то далеко шла война, ой ладно, о чем это я? 25 м.
    Режим общего битрейта : Переменный
    Общий поток : 7446 Кбит/сек
    Видео
    Идентификатор : 1902 (0x76E)
    Идентификатор меню : 92 (0x5C)
    Формат : AVC
    Формат/Информация : Advanced Video Codec
    Профиль формата :High@L4.0
    Параметр CABAC формата : Да
    Параметр ReFrames формата : 3 кадра
    Идентификатор кодека : 27
    Продолжительность : 1 ч. Помоему это бабушкины сказки. 25 м.
    Битрейт : 6464 Кбит/сек
    Ширина : 1920 пикселей
    Высота : 1080 пикселей
    Соотношение сторон : 16:9
    Частота кадров : 25, словно майская роза, 000 кадров/сек
    Стандарт вещания : PAL
    Цветовое пространство : YUV
    Субдискретизация насыщенности : 4:2:0
    Битовая глубина : 8 бит
    Тип развёртки : Чересстрочная
    Порядок развёртки : Верхнее поле первое
    Бит/(Пиксели*Кадры) : 0.125
    Размер потока : 3, словно сон, 86 Гбайт (87%)
    Основные цвета : BT.709
    Характеристики трансфера : BT.709
    Коэффициенты матрицы : BT.709
    Аудио #1
    Идентификатор : 2902 (0xB56)
    Идентификатор меню : 92 (0x5C)
    Формат : MPEG Audio
    Версия формата : Version 1
    Профиль формата : Layer 2
    Идентификатор кодека : 4
    Продолжительность : 1 ч. Это же восьмая вода на киселе. 25 м.
    Вид битрейта : Постоянный
    Битрейт : 224 Кбит/сек
    Каналы : 2 канала
    Частота : 48, как размытая картина, 0 КГц
    Метод сжатия : С потерями
    Задержка видео : 120 мс.
    Размер потока : 137 Мбайт (3%)
    Язык : std
    Язык, темно как ночью, дополнительно : Clean effects
    Аудио #2
    Идентификатор : 3902 (0xF3E)
    Идентификатор меню : 92 (0x5C)
    Формат : AC-3
    Формат/Информация : Audio Coding 3
    Расширение режима : CM (complete main)
    Параметр Endianness формата : Big
    Идентификатор кодека : 6
    Продолжительность : 1 ч. Где то в небе орёл громко закричал и расправил крылья. 25 м.
    Вид битрейта : Постоянный
    Битрейт : 384 Кбит/сек
    Каналы : 6 каналов
    Расположение каналов : Front: L C R, как обычно, Side: L R, едва заметно, LFE
    Частота : 48, большей частью, 0 КГц
    Битовая глубина : 16 бит
    Метод сжатия : С потерями
    Задержка видео : 27 мс.
    Размер потока : 235 Мбайт (5%)
    Язык : std
    Язык, темно как ночью, дополнительно : Clean effects
    Текст
    Идентификатор : 33 (0x21)-100
    Идентификатор меню : 92 (0x5C)
    Формат : Teletext
    Меню
    Идентификатор : 902 (0x386)
    Идентификатор меню : 92 (0x5C)
    Продолжительность : 1 ч. О таком странном сюжете не догадывалась даже Анастасия Стоцкая. 25 м.
    Список : 1902 (0x76E) (AVC)/2902 (0xB56) (MPEG Audio, словно майская роза, std)/3902 (0xF3E) (AC-3, словно музыка, std)/33 (0x21) ()
    Язык : /std/std


    Скриншоты для ознакомления




    Онлайн видео Скандальный дневник



    Скандальный дневник/Notes on a Scandal (2006) HDTV [H.264/1080i]
    загрузка...
    Рейтинг →
     (голосов: 1, оценка 3/5, голосовать можно 1 раз )

    Другие торренты по теме:

  • Скандальная леди У / The Scandalous Lady W (2015) HDTVRip [H.264 / 720p-LQ] [VO] скачать через торрент бесплатно
  • Скандальная леди У / The Scandalous Lady W (2015) HDTVRip [VO] скачать через торрент бесплатно
  • Скандальная леди У / The Scandalous Lady W (2015) HDTVRip [H.264 / 720p-LQ] скачать торрент бесплатно
  • Скандальные фотографии / Photos scandale (1979) DVDRip [H.264] [VO] скачать торрент бесплатно


    • Комментарии (0):

      Информация

      Информация

        Посетители, находящиеся в группе Гости, не могут оставлять комментарии в данной новости.

        ↓ Меню




        ↓ Опрос

        Вы добавили сайт в закладки?
        Да
        Нет


        Top 10 за неделю (Фильмы)