.
Авторизация | Регистрация
Хочешь лучшие торренты? Добавь свой email!
Добавить

Торрент скачать бесплатно

» » Морские дьяволы. Смерч. Судьбы-2 (2016) HDTVRip [H.264 / 1080i] (сезон 2, серия 1-4 из 16) (Обновляемая) торрент скачать бесплатно




    Морские дьяволы. Смерч. Судьбы-2 (2016) HDTVRip [H.264 / 1080i] (сезон 2, серия 1-4 из 16) (Обновляемая) торрент скачать бесплатно

    Опубликовал: Админ | Дата: 28-03-2016, 04:00 | Просмотров: 34

    Производство: Россия, ООО Гамма-продакшн, ООО Зебра
    Жанр: Боевик, Криминал
    Режиссер: Алексей Богданов

    Актеры
    Алексей Гилишников, Виталий Крылов, Кирилл Маркин, Юрий Евдокимов, Александр Чигирь, Андрей Ошканов, Анастасия Колдаева, Венчислав Хотяновский, Борис Хвошнянский, Мария Семенова, Иван Паршин

    Описание

    Смерчи вновь действуют, и вновь – по одному. Новые отдельные фильмы о жизни героев – Бати, Багиры, Кота, Бизона, Физика, Муры и Пригова, в которых каждый отвечает сам за себя – в отпуске, на специальном задании или под прикрытием – словом тогда, когда коллег по Смерчу рядом нет, и надеяться, кроме самих себя, не на кого.

    Дата премьеры в России: 19 марта 2016 (НТВ)
    Релиз от: Nikolspup
    Продолжительность: ~00: 44: 00 серия
    Качество видео: HDTVRip
    Видео: AVC/H.264, 1920x1080 (16: 9), 25.000 fps, 7 869 Kbps (0.152 bit/pixel)
    Аудио: AC-3, 48.0 KHz, 2 ch, 192 Kbps, CBR
    Код:

    Общее
    Идентификатор : 1 (0x1)
    Полное имя : F:видеосериалыMorskie.djavoly.Smerch.Sudby-2.2015.HDTV.(1080i)Morskie.djavoly.Smerch.Sudby-2.(01.seriya).2015.HDTV.(1080i).ts
    Формат : MPEG-TS
    Размер файла : 2, 61 Гбайт
    Продолжительность : 44 м.
    Режим общего битрейта : Переменный
    Общий поток : 8482 Кбит/сек
    Видео
    Идентификатор : 901 (0x385)
    Идентификатор меню : 1116 (0x45C)
    Формат : AVC
    Формат/Информация : Advanced Video Codec
    Профиль формата : Main@L4
    Параметр CABAC формата : Да
    Параметр ReFrames формата : 2 кадра
    Идентификатор кодека : 27
    Продолжительность : 44 м.
    Битрейт : 7869 Кбит/сек
    Ширина : 1920 пикселей
    Высота : 1080 пикселей
    Соотношение сторон : 16:9
    Частота кадров : 25, 000 кадров/сек
    Цветовое пространство : YUV
    Субдискретизация насыщенности : 4:2:0
    Битовая глубина : 8 бит
    Тип развёртки : MBAFF
    Метод сохранения типа развёртки : Чередующиеся поля
    Порядок развёртки : Верхнее поле первое
    Бит/(Пиксели*Кадры) : 0.152
    Размер потока : 2, 42 Гбайт (93%)
    Цветовой диапазон : Limited
    Основные цвета : BT.709
    Характеристики трансфера : BT.709
    Коэффициенты матрицы : BT.709
    Аудио
    Идентификатор : 902 (0x386)
    Идентификатор меню : 1116 (0x45C)
    Формат : MPEG Audio
    Версия формата : Version 1
    Профиль формата : Layer 2
    Идентификатор кодека : 3
    Продолжительность : 44 м.
    Вид битрейта : Постоянный
    Битрейт : 192 Кбит/сек
    Каналы : 2 канала
    Частота : 48, 0 КГц
    Метод сжатия : С потерями
    Задержка видео : -40 мс.
    Размер потока : 60, 5 Мбайт (2%)
    Язык : Russian


    Скриншоты для ознакомления




    Онлайн видео Морские дьяволы. Смерч. Судьбы-2 (2016) HDTVRip [H.264



    Морские дьяволы. Смерч. Судьбы-2 (2016) HDTVRip [H.264/1080i] (сезон 2, серия 1-4 из 16) (Обновляемая)
    загрузка...
    Рейтинг →
     (голосов: 1, оценка 5/5, голосовать можно 1 раз )

    Другие торренты по теме:

  • Морские дьяволы. Смерч 2 (2014) SATRip (серии 1-35 из 64) [обновляемая] скачать через торрент бесплатно
  • Морские дьяволы. Смерч-3 (2016) SATRip (сезон 3, серии 1-2 из 16) (обновляемая)
  • Морские дьяволы. Смерч. Судьбы (2016) SATRip [H.264] (сезон 2, серия 1-2 из 16) (Обновляемая)
  • Морские дьяволы. Смерч-3 (2015) HDTVRip [H.264 / 720p] [сезон 3, серии 1-12 из 32] [обновляемая]
  • Морские дьяволы. Смерч. Судьбы (2013) WEBRip (сезон 1, серий 1-14 из 14)
  • Морские дьяволы. Смерч. Судьбы-2 (2016) HDTVRip [H.264 / 720p-LQ] (сезон 2, серия 1-2 из 16) [Обновляемая]
  • Морские дьяволы. Смерч-3 (2015) HDTVRip [H.264 / 1080i] (сезон 3, серии 1-20 из 32) (обновляемая)
  • Морские дьяволы. Смерч (2015) HDTVRip (Сезон 3, серий 1-32 из 32)


    • Комментарии (0):

      Информация

      Информация

        Посетители, находящиеся в группе Гости, не могут оставлять комментарии в данной новости.

        ↓ Меню




        ↓ Опрос

        Вы добавили сайт в закладки?
        Да
        Нет


        Top 10 за месяц (Фильмы)