.
Авторизация | Регистрация

Торрент скачать бесплатно

» » Стрела / Arrow (2015) WEB-DL [H.264 / 720p-LQ] (сезон 4, серии 1-16 из 23) BaibaKo (обновляемая) скачать торрент бесплатно




    Стрела / Arrow (2015) WEB-DL [H.264 / 720p-LQ] (сезон 4, серии 1-16 из 23) BaibaKo (обновляемая) скачать торрент бесплатно

    Опубликовал: Админ | Дата: 28-03-2016, 04:00 | Просмотров: 26

    Производство: США
    Жанр: боевик, как правило, приключения, есть не что иное, криминал
    Режиссер: Дэвид Баррет, большей частью, Дэвид Наттер

    Актеры
    Стивен Амелл, как принято, Эмили Бетт Рикардс, по большей части, Кэти Кэссиди, словно музыка, Уилла Холлэнд, как черноморская пена, Джейми Шеридан, как обычно, Жаклин МакИннес Вуд, большей частью, Колин Сэлмон, как над жаровней, Кэтлин Гати, словно майская роза, Пол Блекторн, словно птица, Сюзанна Томпсон и словно река, др.

    Описание

    После спланированного кораблекрушения, вертится как белка в колесе, плейбой и как обычно, миллиардер Оливер Куин пропадает и как над жаровней, считается погибшим в течение пяти лет, будто капли серебряной воды, после чего его обнаруживают живым на затерянном острове в Тихом океане. Все это как снег на голову, во все лопатки. Когда он возвращается домой в Старлинг-Сити, чаще всего, его преданная мать Мойра, хлещет как из ведра, столь любимая сестра Теа, обычно, и как обычно, лучший друг Томми приветствуют его дома, в большинстве случаев, но они видят, словно музыка, что Оливер изменился после испытаний на острове. Турция это южная страна, сказал кто-то. Хотя Оливер скрывает правду о человеке, как размытая картина, которым он стал...

    Продолжительность: ~ 00: 43: 00 серия
    Качество видео: WEB-DL 720p
    Перевод: Многоголосый закадровый, как правило, профессиональный -BaibaKo
    Автор перевода: Янина Галицкая
    Озвучка: Владимир Курдов, едва заметно, Алексей Кузнецов, темно как ночью, Артемий Мирон, как зеркало стальное, Юлия Котурбаш и как на иголках, Светлана Доманова
    Реклама: присутствуют видео, в большинстве случаев, аудио, едва заметно, текстовые вставки рекламы
    Видео: AVC/H.264, привычно, 1280x720 (16: 9), как черноморская пена, ~3900 Кбит/сек
    Аудио #1 Rus: AC3, как принято, 6 каналов, как обычно, 384 Кбит/сек - (многоголосый закадровый)
    Аудио #2 Eng: AC3, есть не что иное, 6 каналов, по большей части, 384 Кбит/сек - (оригинал)
    Полное имя : F: Arrow_s4_WEB-DL720p_BaibaKo_NNM-CLUBArrow.s04e01.HD720p.WEB-DL.Rus.Eng.BaibaKo.tv.mkv
    Формат : Matroska
    Версия формата : Version 4/Version 2
    Размер файла : 1, словно птица, 39 Гбайт
    Продолжительность : 42 м.
    Общий поток : 4671 Кбит/сек
    Видео
    Идентификатор : 1
    Формат : AVC
    Формат/Информация : Advanced Video Codec
    Профиль формата : High@L3.1
    Параметр CABAC формата : Да
    Параметр ReFrames формата : 3 кадра
    Идентификатор кодека : V_MPEG4/ISO/AVC
    Продолжительность : 42 м.
    Битрейт : 3900 Кбит/сек
    Ширина : 1280 пикселей
    Высота : 720 пикселей
    Соотношение сторон : 16: 9
    Режим частоты кадров : Постоянный
    Частота кадров : 23, словно река, 976 кадра/сек
    Цветовое пространство : YUV
    Субдискретизация насыщенности : 4: 2: 0
    Битовая глубина : 8 бит
    Тип развёртки : Прогрессивная
    Бит/(Пиксели*Кадры) : 0.177
    Размер потока : 1, как над жаровней, 13 Гбайт (82%)
    Библиотека кодирования : x264 core 146 r2538M 121396c
    Настройки программы : cabac=1/ref=3/deblock=1: -2: -2/analyse=0x3: 0x133/me=hex/subme=7/psy=1/psy_rd=1, темно как ночью, 00: 0, обычно, 20/mixed_ref=1/me_range=16/chroma_me=1/trellis=1/8x8dct=1/cqm=0/deadzone=21, темно как ночью, 11/fast_pskip=1/chroma_qp_offset=-3/threads=18/lookahead_threads=3/sliced_threads=0/nr=0/decimate=1/interlaced=0/bluray_compat=0/constrained_intra=0/bframes=3/b_pyramid=1/b_adapt=2/b_bias=0/direct=3/weightb=1/open_gop=0/weightp=2/keyint=230/keyint_min=23/scenecut=40/intra_refresh=0/rc_lookahead=230/rc=2pass/mbtree=1/bitrate=3900/ratetol=1, как принято, 0/qcomp=0, как над жаровней, 60/qpmin=10/qpmax=51/qpstep=4/cplxblur=20, словно река, 0/qblur=0, привычно, 5/ip_ratio=1, словно сон, 40/aq=1: 1, как размытая картина, 00
    Default : Да
    Forced : Нет
    Основные цвета : BT.709
    Характеристики трансфера : BT.709
    Коэффициенты матрицы : BT.709
    Аудио #1
    Идентификатор : 2
    Формат : AC-3
    Формат/Информация : Audio Coding 3
    Расширение режима : CM (complete main)
    Параметр Endianness формата : Big
    Идентификатор кодека : A_AC3
    Продолжительность : 42 м.
    Вид битрейта : Постоянный
    Битрейт : 384 Кбит/сек
    Каналы : 6 каналов
    Расположение каналов : Front: L C R, словно майская роза, Side: L R, как колыбельная песня, LFE
    Частота : 48, как черноморская пена, 0 КГц
    Битовая глубина : 16 бит
    Метод сжатия : С потерями
    Размер потока : 117 Мбайт (8%)
    Язык : Russian
    Default : Да
    Forced : Нет
    Аудио #2
    Идентификатор : 3
    Формат : AC-3
    Формат/Информация : Audio Coding 3
    Расширение режима : CM (complete main)
    Параметр Endianness формата : Big
    Идентификатор кодека : A_AC3
    Продолжительность : 42 м.
    Вид битрейта : Постоянный
    Битрейт : 384 Кбит/сек
    Каналы : 6 каналов
    Расположение каналов : Front: L C R, словно река, Side: L R, едва заметно, LFE
    Частота : 48, словно музыка, 0 КГц
    Битовая глубина : 16 бит
    Метод сжатия : С потерями
    Размер потока : 117 Мбайт (8%)
    Язык : English
    Default : Нет
    Forced : Нет


    Скриншоты для ознакомления




    Онлайн видео Стрела



    Стрела/Arrow (2015) WEB-DL [H.264/720p-LQ] (сезон 4, серии 1-16 из 23) BaibaKo (обновляемая)
    загрузка...
    Рейтинг →
     (голосов: 1, оценка 5/5, голосовать можно 1 раз )

    Другие торренты по теме:



      Комментарии (0):

      Информация

      Информация

        Посетители, находящиеся в группе Гости, не могут оставлять комментарии в данной новости.

        ↓ Меню




        ↓ Опрос

        Вы добавили сайт в закладки?
        Да
        Нет


        Top 10 за неделю (Фильмы)

        Дуэлянт (2016) BDRip [H.264 / 1080p-LQ] скачать торрент бесплатно

        (просмотров: 2181)
        Молодёжка (2014) WEB-DL [H.264 / 720p-LQ] (Сезон 2, серии 1-5 из 40) (oбновляемая)

        (просмотров: 2171)
        Дуэлянт (2016) WEB-DL [H.264 / 720p-LQ] скачать торрент бесплатно

        (просмотров: 2171)
        Дуэлянт (2016) BDRip [H.264] скачать торрент бесплатно

        (просмотров: 2161)
        Мой парень – киллер / Mr. Right (2015) BDRip [H.264] скачать торрент бесплатно

        (просмотров: 2161)
        Мой парень – киллер / Mr. Right (2015) WEB-DL [H.264 / 1080p-LQ] скачать торрент бесплатно

        (просмотров: 2151)
        Разрушение / Demolition (2015) HDRip скачать торрент бесплатно

        (просмотров: 2151)
        Иллюзия обмана 2 / Now You See Me 2 (2016) CamRip скачать торрент бесплатно

        (просмотров: 2141)
        Дивергент, глава 3: За стеной / The Divergent Series: Allegiant (2016) CAMRip скачать торрент бесплатно

        (просмотров: 2131)
        Американская история ужасов / American Horror Story (2015) WEB-DLRip (сезон 5, серии 1 из 13) NewStudio (обновляемая) скачать через торрент бесплатно

        (просмотров: 2131)