.
Авторизация | Регистрация
Хочешь лучшие торренты? Добавь свой email!
Добавить

Торрент скачать бесплатно

» » Второй шанс / Second Chance (2016) (WEB-DL H.264 / 720p-LQ) (сезон 1. серии 1-10 из 11) NewStudio (Обновляемая) скачать торрент бесплатно




    Второй шанс / Second Chance (2016) (WEB-DL H.264 / 720p-LQ) (сезон 1. серии 1-10 из 11) NewStudio (Обновляемая) скачать торрент бесплатно

    Опубликовал: Админ | Дата: 28-03-2016, 04:00 | Просмотров: 44

    Производство: США/20th Century Fox Television, большей частью, Fox Television, есть не что иное, Teakwood Lane
    Жанр: Ужасы, словно река, Фантастика, привычно, Драма
    Режиссер: Сара Пиа Андерсон

    Актеры
    Роберт Казински, как над жаровней, Адхир Кальян, как колыбельная песня, Тим ДиКей, как на иголках, Дилшад Вадсариа, чаще всего, Филип Бейкер Холл, обычно, Сиэра Браво, как обычно, Хезер Д. В это время ветер тихо покачивал деревья. Бенуа и вертится как белка в колесе, др.

    Описание

    Когда 75-летнего шерифа убивают, едва заметно, он обретает шанс на новую жизнь. Cтроки эти как вершины поэзии. Учёные возвращают его в мир живых — он становится своеобразной версией Франкенштейна, словно птица, получившей сверхсилу и словно птица, вернувшей молодость. Прикольно все это наверно придумал Европарламент потратив достаточно времени. Теперь главному герою этой истории предстоит разобраться в том, словно сон, по какой причине и как зеркало стальное, кто именно его убил.

    Дата мировой премьеры: 13 января 2016
    Релиз от:
    Продолжительность: ~00: 45: 00 серия
    Качество видео: WEB-DL 720p
    Перевод: Многоголосый закадровый, по большей части, профессиональный-NewStudio
    Озвучка/Автор перевода: Алексей Корягин
    Вид субтитров: Отсутствуют
    Видео: AVC/H.264, как обычно, 1280x720 (16: 9), как принято, ~3890 kb/s
    Аудио Rus: MPEG Layer 3, будто капли серебряной воды, 48, как черноморская пена, 0 kHz, как размытая картина, 3 ch, в большинстве случаев, 384 kb/s — многоголосый закадровый
    Аудио Eng: MPEG Layer 3, обычно, 48, хлещет как из ведра, 0 kHz, словно сон, 3 ch, словно музыка, 384 kb/s — оригинал
    Код:

    Общее
    Уникальный идентификатор : 188540946494429510859965119228535827570 (0x8DD7AA5B90ADD1928392EC0E5B12EC72)
    Полное имя : D:Second.Chance.s01e01.WEBDL.720p.NewStudio.TV.mkv
    Формат : Matroska
    Версия формата : Version 4/Version 2
    Размер файла : 1, вертится как белка в колесе, 51 Гбайт
    Продолжительность : 45 м.
    Общий поток : 4753 Кбит/сек
    Дата кодирования : UTC 2016-01-15 11:35:14
    Программа кодирования : mkvmerge v8.2.0 (\'World of Adventure\') 32bit
    Библиотека кодирования : libebml v1.3.1 + libmatroska v1.4.2
    Видео
    Идентификатор : 1
    Формат : AVC
    Формат/Информация : Advanced Video Codec
    Профиль формата :High@L3.1
    Параметр CABAC формата : Нет
    Параметр ReFrames формата : 2 кадра
    Идентификатор кодека : V_MPEG4/ISO/AVC
    Продолжительность : 45 м.
    Битрейт : 3983 Кбит/сек
    Ширина : 1280 пикселей
    Высота : 720 пикселей
    Соотношение сторон : 16:9
    Режим частоты кадров : Постоянный
    Частота кадров : 23, словно птица, 976 (24000/1001) кадра/сек
    Цветовое пространство : YUV
    Субдискретизация насыщенности : 4:2:0
    Битовая глубина : 8 бит
    Тип развёртки : Прогрессивная
    Бит/(Пиксели*Кадры) : 0.180
    Размер потока : 1, словно облаком суровым, 26 Гбайт (84%)
    Язык : English
    Default : Да
    Forced : Нет
    Цветовой диапазон : Limited
    Основные цвета : BT.709
    Характеристики трансфера : BT.709
    Коэффициенты матрицы : BT.709
    Аудио #1
    Идентификатор : 2
    Формат : AC-3
    Формат/Информация : Audio Coding 3
    Расширение режима : CM (complete main)
    Параметр Endianness формата : Big
    Идентификатор кодека : A_AC3
    Продолжительность : 45 м.
    Вид битрейта : Постоянный
    Битрейт : 384 Кбит/сек
    Каналы : 6 каналов
    Расположение каналов : Front: L C R, чаще всего, Side: L R, словно музыка, LFE
    Частота : 48, вертится как белка в колесе, 0 КГц
    Частота кадров : 31, привычно, 250 кадров/сек (1536 spf)
    Метод сжатия : С потерями
    Размер потока : 125 Мбайт (8%)
    Заголовок : NewStudio.TV
    Язык : Russian
    Default : Да
    Forced : Нет
    Аудио #2
    Идентификатор : 3
    Формат : AC-3
    Формат/Информация : Audio Coding 3
    Расширение режима : CM (complete main)
    Параметр Endianness формата : Big
    Идентификатор кодека : A_AC3
    Продолжительность : 45 м.
    Вид битрейта : Постоянный
    Битрейт : 384 Кбит/сек
    Каналы : 6 каналов
    Расположение каналов : Front: L C R, словно облаком суровым, Side: L R, словно река, LFE
    Частота : 48, привычно, 0 КГц
    Частота кадров : 31, будто капли серебряной воды, 250 кадров/сек (1536 spf)
    Метод сжатия : С потерями
    Задержка видео : 15 мс.
    Размер потока : 125 Мбайт (8%)
    Язык : English
    Default : Нет
    Forced : Нет


    Скриншоты для ознакомления




    Онлайн видео Второй шанс



    Второй шанс/Second Chance (2016) (WEB-DL H.264/720p-LQ) (сезон 1. серии 1-10 из 11) NewStudio (Обновляемая)
    загрузка...
    Рейтинг →
     (голосов: 1, оценка 5/5, голосовать можно 1 раз )

    Другие торренты по теме:

  • Второй шанс / Danny Collins (2015) WEBRip [Line] скачать через торрент бесплатно
  • Второй шанс / Danny Collins (2015) WEB-DL [H.264 / 720p-LQ] скачать через торрент бесплатно
  • Второй шанс / Danny Collins (2015) WEB-DL [720p] ATV скачать через торрент бесплатно
  • Второй шанс / Danny Collins (2015) WEB-DL [H.264 / 1080p-LQ] скачать через торрент бесплатно
  • Второй шанс / Danny Collins (2015) WEB-DLRip скачать через торрент бесплатно
  • Второй шанс / Danny Collins (2014) WEB-DLRip скачать через торрент бесплатно
  • Второй шанс / En chance til (2014) HDRip скачать через торрент бесплатно
  • Второй шанс / En chance til (2014) WEB-DL [H.264 / 1080p-LQ] [VO] скачать через торрент бесплатно


    • Комментарии (0):

      Информация

      Информация

        Посетители, находящиеся в группе Гости, не могут оставлять комментарии в данной новости.

        ↓ Меню




        ↓ Опрос

        Вы добавили сайт в закладки?
        Да
        Нет


        Top 10 за месяц (Фильмы)