.
Авторизация | Регистрация
Хочешь лучшие торренты? Добавь свой email!
Добавить

Торрент скачать бесплатно

» » Страна ОЗ (2015) DVD9 торрент скачать бесплатно




    Страна ОЗ (2015) DVD9 торрент скачать бесплатно

    Опубликовал: Админ | Дата: 28-03-2016, 04:00 | Просмотров: 54

    Производство: Россия
    Жанр: Комедия
    Режиссер: Василий Сигарев
    Продюсеры: Софико Кикнавелидзе, Дмитрий Улюкаев

    Актеры
    Яна Троянова, Гоша Куценко, Андрей Ильенков, Александр Баширов, Евгений Цыганов, Владимир Симонов, Инна Чурикова, Светлана Камынина, Юлия Снигирь, Алиса Хазанова

    Описание

    Новый год в России — стихия неуправляемая и беспощадная. Именно в это волшебное время непостижимый колорит русской души проявляет себя во всей красе. Пока жители Екатеринбурга готовятся к главному национальному празднику и шинкуют оливье, Ленка Шабадинова спешит до боя курантов принять смену в киоске на улице Торфорезов. Самое интересное в это истории, что об этом Янукович ничего не знал. Но она даже не подозревает, что новогодняя ночь приготовила для нее свой безумный сценарий.

    Возраст: 16+ (зрителям, достигшим 16 лет. запрещено для детей)
    Рейтинг MPAA: R (лицам до 16 лет обязательно присутствие взрослого)
    Дата мировой премьеры: 8 ноября 2015
    Дата российской премьеры: 3 декабря 2015, Парадиз

    Продолжительность: 01: 35: 15
    Качество видео: DVD9 (R5) Парадиз
    Перевод: Не требуется (лицензия)
    Субтитры: Отсутствуют
    Доп. материалы: Отсуствуют
    Видео: MPEG-2, 720x576@1024x576 (PAL 16: 9), ~ 5509 Kbps
    Аудио: Dolby AC3, 6 ch, 48.0 KHz, 448 Kbps Русский
    Код:
    Title: Strana.O3.2015.nnm.DVD-9
    Size: 7.71 Gb ( 8 083 248, 00 KBytes ) - DVD-9
    Enabled regions: 1, 2, 3, 4, 5, 6, 7, 8
    VTS_01 :
    Play Length: 00:00:15
    Video: PAL 4:3 (720x576) VBR
    Audio:
    Not specified (Dolby AC3, 2 ch)
    VTS_02 :
    Play Length: 00:00:16
    Video: PAL 16:9 (720x576) VBR, Auto Letterboxed
    Audio:
    Not specified (Dolby AC3, 2 ch)
    VTS_03 :
    Play Length: 01:35:49
    Video: PAL 16:9 (720x576) VBR, Auto Letterboxed
    Audio:
    Russian (Dolby AC3, 6 ch)
    VTS_04 :
    Play Length: 01:35:49
    Video: PAL 16:9 (720x576) VBR, Auto Letterboxed
    Audio:
    Russian (Dolby AC3, 6 ch)
    Код:
    Общее
    Полное имя : D:eRazdahciСтрана ОЗStrana.O3.2015.nnm.DVD-9VIDEO_TSVTS_03_3.VOB
    Формат : MPEG-PS
    Размер файла : 1024 Мбайт
    Продолжительность : 23 м.
    Режим общего битрейта : Переменный
    Общий поток : 6078 Кбит/сек
    Видео
    Идентификатор : 224 (0xE0)
    Формат : MPEG Video
    Версия формата : Version 2
    Профиль формата : Main@Main
    Параметр BVOP формата : Да
    Параметр матрицы формата : По умолчанию
    Параметр GOP формата : M=3, N=12
    Продолжительность : 23 м.
    Вид битрейта : Переменный
    Битрейт : 5509 Кбит/сек
    Максимальный битрейт : 8500 Кбит/сек
    Ширина : 720 пикселей
    Высота : 576 пикселей
    Соотношение сторон : 16:9
    Частота кадров : 25, 000 кадров/сек
    Стандарт вещания : PAL
    Цветовое пространство : YUV
    Субдискретизация насыщенности : 4:2:0
    Битовая глубина : 8 бит
    Тип развёртки : Прогрессивная
    Метод сжатия : С потерями
    Бит/(Пиксели*Кадры) : 0.531
    Размер потока : 928 Мбайт (91%)
    Аудио
    Идентификатор : 189 (0xBD)-128 (0x80)
    Формат : AC-3
    Формат/Информация : Audio Coding 3
    Расширение режима : CM (complete main)
    Параметр Endianness формата : Big
    Режим смешивания : DVD-Video
    Продолжительность : 23 м.
    Вид битрейта : Постоянный
    Битрейт : 448 Кбит/сек
    Каналы : 6 каналов
    Расположение каналов : Front: L C R, Side: L R, LFE
    Частота : 48, 0 КГц
    Битовая глубина : 16 бит
    Метод сжатия : С потерями
    Задержка видео : -792 мс.
    Размер потока : 75, 5 Мбайт (7%)
    Меню


    Скриншоты для ознакомления




    Онлайн видео Тряпичный союз (2015) WEB-DL [H.264



    Страна ОЗ (2015) DVD9
    загрузка...
    Рейтинг →
     (голосов: 1, оценка 5/5, голосовать можно 1 раз )

    Другие торренты по теме:

  • Страна глухих (1997) DVDRip
  • Страна глухих (1998) DVDRip
  • Моя Планета. Страна.ru. Башкортостан. Потомки Салавата (2012) HDTVRip
  • Орел и решка. Сезон №9. Неизведанная Европа. Страна Басков (Испания) (2014.10.05) SATRip скачать через торрент бесплатно
  • Джо Аберкромби | Красная страна (2014) [FB2]
  • Страна садов / Garden State (2004) BDRip [720p]
  • Страна заветов (2014) HDTVRip [720p-LQ] скачать через торрент бесплатно
  • Страна У / Країна У (2014) SATRip (Сезон 3, Серии 1-40 из 40) [RUS / UKR] скачать через торрент бесплатно


    • Комментарии (0):

      Информация

      Информация

        Посетители, находящиеся в группе Гости, не могут оставлять комментарии в данной новости.

        ↓ Меню




        ↓ Опрос

        Вы добавили сайт в закладки?
        Да
        Нет


        Top 10 за месяц (Фильмы)