.
Авторизация | Регистрация
Хочешь лучшие торренты? Добавь свой email!
Добавить

Торрент скачать бесплатно

» » Королева бензоколонки (1962) HDTVRip [H.264] торрент скачать бесплатно




    Королева бензоколонки (1962) HDTVRip [H.264] торрент скачать бесплатно

    Опубликовал: Админ | Дата: 28-03-2016, 04:00 | Просмотров: 50

    Производство: СССР, Киевская киностудия им. А.Довженко
    Жанр: Комедия
    Режиссер: Николай Литус, Алексей Мишурин

    Актеры
    Надежда Румянцева, Андрей Сова, Нонна Копержинская, Юрий Белов, Алексей Кожевников, Сергей Блинников, Владимир Белокуров, Николай Яковченко, Виктор Мягкий, Павел Винник, Александр Хвыля, Евгения Опалова...

    Описание

    Людмила Добрыйвечер мечтает танцевать в балете на льду. Но она не проходит по конкурсу - и устраивается на бензоколонку заправщицей. О таком странном сюжете не догадывалась даже Вера Брежнева. Именно в это время она начинает активно заправлять автомобили бензином. Не все пока получается у нее. Но только большая и светлая любовь к бабушке помогает Людмиле преодолеть невзгоды, а заодно отремонтировать мост через пограничную реку...

    Продолжительность: 01: 12: 55
    Качество видео: HDTVRip
    Видео: AVC/H.264, 986x718, ~4 099 Kbps, 25.000 fps
    Аудио: MP2, 2 ch, 192 Kbps, 48.0 KHz, CBR
    Код:

    General
    Unique ID : 209655808177565324842953281740682578642 (0x9DBA3D69FB128DDF9CAA3E9452A84AD2)
    Complete name : G:Download_GKoroleva_benzokolonki_1962_HDTVRip_AVC.mkv
    Format : Matroska
    Format version : Version 2
    File size : 2.18 GiB
    Duration : 1h 12mn
    Overall bit rate : 4 293 Kbps
    Encoded date : UTC 2014-04-01 21:43:24
    Writing application : mkvmerge v5.1.0 (\'And so it goes\') built on Nov 28 2011 23:58:28
    Writing library : libebml v1.2.3 + libmatroska v1.3.0
    Video
    ID : 1
    Format : AVC
    Format/Info : Advanced Video Codec
    Format profile :High@L4.1
    Format settings, CABAC : Yes
    Format settings, ReFrames : 11 frames
    Codec ID : V_MPEG4/ISO/AVC
    Duration : 1h 12mn
    Bit rate : 4 099 Kbps
    Width : 986 pixels
    Height : 718 pixels
    Display aspect ratio : 1.373
    Frame rate mode : Constant
    Frame rate : 25.000 fps
    Color space : YUV
    Chroma subsampling : 4:2:0
    Bit depth : 8 bits
    Scan type : Progressive
    Bits/(Pixel*Frame) : 0.232
    Stream size : 2.04 GiB (94%)
    Writing library : x264 core 142 r2409 d6b4e63
    Encoding settings : cabac=1/ref=11/deblock=1:-3:-2/analyse=0x3:0x113/me=umh/subme=11/psy=1/psy_rd=1.05:0.15/mixed_ref=1/me_range=24/chroma_me=1/trellis=2/8x8dct=1/cqm=0/deadzone=21, 11/fast_pskip=0/chroma_qp_offset=-3/threads=12/lookahead_threads=2/sliced_threads=0/nr=0/decimate=0/interlaced=0/bluray_compat=0/constrained_intra=0/bframes=7/b_pyramid=2/b_adapt=2/b_bias=0/direct=3/weightb=1/open_gop=0/weightp=2/keyint=250/keyint_min=25/scenecut=40/intra_refresh=0/rc_lookahead=60/rc=2pass/mbtree=1/bitrate=4099/ratetol=1.0/qcomp=0.70/qpmin=0/qpmax=39/qpstep=4/cplxblur=20.0/qblur=0.5/ip_ratio=1.35/aq=1:1.00
    Language : English
    Default : Yes
    Forced : No
    Color range : Limited
    Color primaries : BT.709
    Transfer characteristics : BT.709
    Matrix coefficients : BT.709
    Audio
    ID : 2
    Format : MPEG Audio
    Format version : Version 1
    Format profile : Layer 2
    Codec ID : A_MPEG/L2
    Codec ID/Hint : MP2
    Duration : 1h 12mn
    Bit rate mode : Constant
    Bit rate : 192 Kbps
    Channel(s) : 2 channels
    Sampling rate : 48.0 KHz
    Compression mode : Lossy
    Delay relative to video : 87ms
    Stream size : 100.0 MiB (4%)
    Language : Russian
    Default : Yes
    Forced : No


    Скриншоты для ознакомления




    Онлайн видео Тряпичный союз (2015) WEB-DL [H.264



    Королева бензоколонки (1962) HDTVRip [H.264]
    загрузка...
    Рейтинг →
     (голосов: 1, оценка 5/5, голосовать можно 1 раз )

    Другие торренты по теме:

  • Королева бензоколонки (1962) HDTVRip [H.264 / 720p-LQ] скачать через торрент бесплатно
  • Королева бензоколонки (1962) HDTVRip [H.264 / 720p-LQ] скачать через торрент бесплатно
  • Королева бензоколонки (1962) DVDRip [H.264]


    • Комментарии (0):

      Информация

      Информация

        Посетители, находящиеся в группе Гости, не могут оставлять комментарии в данной новости.

        ↓ Меню




        ↓ Опрос

        Вы добавили сайт в закладки?
        Да
        Нет


        Top 10 за месяц (Фильмы)