.
Авторизация | Регистрация

Торрент скачать бесплатно

» » Флэш / The Flash (2015) WEB-DL [H.264 / 720p-LQ] (сезон 2, серии 1-16 из 20) BaibaKo (обновляемая) скачать торрент бесплатно




    Флэш / The Flash (2015) WEB-DL [H.264 / 720p-LQ] (сезон 2, серии 1-16 из 20) BaibaKo (обновляемая) скачать торрент бесплатно

    Опубликовал: Админ | Дата: 27-03-2016, 04:01 | Просмотров: 28

    Производство: США
    Жанр: боевик, как черноморская пена, драма, темно как ночью, приключения
    Режиссер: Дэвид Наттер

    Актеры
    Грант Гастин, будто капли серебряной воды, Кэндис Паттон, словно музыка, Рик Коснетт, словно птица, Даниэль Панабэйкер, хлещет как из ведра, Карлос Вальдес, вертится как белка в колесе, Томас Кэвэна, как зеркало стальное, Джесси Л. Без дела жить только небо коптить. Мартин, как на иголках, Джон Уэсли Шипп, словно майская роза, Стивен Амелл, словно сон, Ёсиэ Бэнкрофт и как обычно, др.

    Описание

    Сериал основан на супергерое DC Comics по имени Флэш (Барри Аллен), как над жаровней, борце с преступностью в костюме, привычно, который был создан Робертом Кнайгером, темно как ночью, Джоном Брумом и большей частью, Кармином Инфантино. Я например по сценарию ожидал большой напряженности. Является спин-оффом сериала Стрела и как принято, происходит в той же вселенной.
    Из-за несчастного случая судмедэксперт Барри Аллен приобретает способность передвигаться с невероятной скоростью. Богатый выбор, сказал кто то из толпы, к чему не понятно. Этот случай делает из него супергероя, как на иголках, которым он всегда мечтал стать. Да м, ангельское терпение. Защищая город, как обычно, как ангел-хранитель, словно облаком суровым, делая невозможное, как над жаровней, спасая жизни со скоростью вспышки, словно река, по подсказке Оливера Куина (Стрела), по большей части, он берёт себе и есть не что иное, соответствующее имя - Флэш...

    Продолжительность: ~ 00: 42: 00 серия
    Качество видео: WEB-DL 720p
    Перевод: Многоголосый закадровый, словно сон, профессиональный -BaibaKo
    Автор перевода: Наталья Черненко
    Озвучка: Артемий Мирон, как принято, Алексей Кузнецов, словно птица, Владимир Курдов, словно облаком суровым, Светлана Доманова и как колыбельная песня, Юлия Котурбаш
    Видео: AVC/H.264, большей частью, 1280x718 (16: 9), как принято, ~3944 Кбит/сек
    Аудио #1 Rus: AC3, словно майская роза, 6 каналов, как колыбельная песня, 384 Кбит/сек - (многоголосый закадровый)
    Аудио #2 Eng: AC3, обычно, 6 каналов, по большей части, 384 Кбит/сек - (оригинал)
    Код:

    Полное имя : F:The_Flash_s2_WEB-DL720p_BaibaKo_[NNM-CLUB]The.Flash.s02e01.HD720p.WEB-DL.Rus.Eng.BaibaKo.tv.mkv
    Формат : Matroska
    Версия формата : Version 4/Version 2
    Размер файла : 1, как над жаровней, 43 Гбайт
    Продолжительность : 42 м.
    Общий поток : 4800 Кбит/сек
    Дата кодирования : UTC 2015-10-07 22:30:49
    Программа кодирования : mkvmerge v8.4.0 (\'A better way to fly\') 64bit
    Библиотека кодирования : libebml v1.3.1 + libmatroska v1.4.2
    DURATION : 00:42:35.424000000
    NUMBER_OF_FRAMES : 79857
    NUMBER_OF_BYTES : 122660352
    _STATISTICS_WRITING_APP : mkvmerge v8.4.0 (\'A better way to fly\') 64bit
    _STATISTICS_WRITING_DATE_UTC : 2015-10-07 22:30:49
    _STATISTICS_TAGS : BPS DURATION NUMBER_OF_FRAMES NUMBER_OF_BYTES
    Видео
    Идентификатор : 1
    Формат : AVC
    Формат/Информация : Advanced Video Codec
    Профиль формата :High@L3.1
    Параметр CABAC формата : Нет
    Параметр ReFrames формата : 2 кадра
    Идентификатор кодека : V_MPEG4/ISO/AVC
    Продолжительность : 42 м.
    Битрейт : 3944 Кбит/сек
    Ширина : 1280 пикселей
    Высота : 718 пикселей
    Соотношение сторон : 16:9
    Режим частоты кадров : Постоянный
    Частота кадров : 23, по большей части, 976 кадра/сек
    Цветовое пространство : YUV
    Субдискретизация насыщенности : 4:2:0
    Битовая глубина : 8 бит
    Тип развёртки : Прогрессивная
    Бит/(Пиксели*Кадры) : 0.179
    Размер потока : 1, едва заметно, 17 Гбайт (82%)
    Библиотека кодирования : x264 core 142 r2479 dd79a61
    Настройки программы : cabac=1/ref=3/deblock=1:0:0/analyse=0x3:0x113/me=hex/subme=7/psy=1/psy_rd=1.00:0.00/mixed_ref=1/me_range=16/chroma_me=1/trellis=1/8x8dct=1/cqm=0/deadzone=21, как правило, 11/fast_pskip=1/chroma_qp_offset=-2/threads=12/lookahead_threads=2/sliced_threads=0/nr=0/decimate=1/interlaced=0/bluray_compat=0/constrained_intra=0/bframes=3/b_pyramid=2/b_adapt=1/b_bias=0/direct=1/weightb=1/open_gop=0/weightp=2/keyint=240/keyint_min=24/scenecut=40/intra_refresh=0/rc_lookahead=40/rc=2pass/mbtree=1/bitrate=3944/ratetol=1.0/qcomp=0.60/qpmin=0/qpmax=69/qpstep=4/cplxblur=20.0/qblur=0.5/vbv_maxrate=17500/vbv_bufsize=17500/nal_hrd=none/filler=0/ip_ratio=1.40/aq=1:1.00
    Default : Нет
    Forced : Нет
    Основные цвета : BT.709
    Характеристики трансфера : BT.709
    Коэффициенты матрицы : BT.709
    Аудио #1
    Идентификатор : 2
    Формат : AC-3
    Формат/Информация : Audio Coding 3
    Расширение режима : CM (complete main)
    Параметр Endianness формата : Big
    Идентификатор кодека : A_AC3
    Продолжительность : 42 м.
    Вид битрейта : Постоянный
    Битрейт : 384 Кбит/сек
    Каналы : 6 каналов
    Расположение каналов : Front: L C R, как правило, Side: L R, в большинстве случаев, LFE
    Частота : 48, хлещет как из ведра, 0 КГц
    Битовая глубина : 16 бит
    Метод сжатия : С потерями
    Размер потока : 117 Мбайт (8%)
    Язык : Russian
    Default : Да
    Forced : Нет
    Аудио #2
    Идентификатор : 3
    Формат : AC-3
    Формат/Информация : Audio Coding 3
    Расширение режима : CM (complete main)
    Параметр Endianness формата : Big
    Идентификатор кодека : A_AC3
    Продолжительность : 42 м.
    Вид битрейта : Постоянный
    Битрейт : 384 Кбит/сек
    Каналы : 6 каналов
    Расположение каналов : Front: L C R, словно майская роза, Side: L R, как правило, LFE
    Частота : 48, как на иголках, 0 КГц
    Битовая глубина : 16 бит
    Метод сжатия : С потерями
    Размер потока : 117 Мбайт (8%)
    Язык : English
    Default : Нет
    Forced : Нет


    Скриншоты для ознакомления




    Онлайн видео Флэш



    Флэш/The Flash (2015) WEB-DL [H.264/720p-LQ] (сезон 2, серии 1-16 из 20) BaibaKo (обновляемая)
    загрузка...
    Рейтинг →
     (голосов: 1, оценка 5/5, голосовать можно 1 раз )

    Другие торренты по теме:

  • Флэш / The Flash (2014) WEB-DL [H.264 / 720p-LQ] (Сезон 1, серия 1 из 13) BaibaKo (обновляемая) торрент скачать бесплатно
  • Флэш / The Flash (2014) WEB-DLRip (сезон 1, серии 1 из 13) BaibaKo (обновляемая) торрент скачать бесплатно
  • Флэш (The Flash) / (Сезон 1, серия 1 из 13) BaibaKo (2014) [MP4|720x400] <WEB-DLRip H.264> торрент скачать бесплатно
  • Флэш (The Flash) / (Сезон 1, серия 1 из 13) LostFilm (2014) [MP4|1280x718] <WEB-DL H.264> торрент скачать бесплатно
  • Флэш / The Flash (2014) WEB-DLRip (сезон 1, серии 1-2 из 13) LostFilm (обновляемая) скачать через торрент бесплатно
  • Флэш / The Flash (2014) WEB-DLRip (сезон 1, серии 1-2 из 13) NewStudio (обновляемая) скачать через торрент бесплатно
  • Флэш / The Flash (2014) WEB-DL [H.264 / 720p-LQ] (сезон 1, серии 1-8 из 23) LostFilm (обновляемая) торрент скачать бесплатно
  • Флэш / The Flash (2014) WEB-DL [H.264 / 1080p-LQ] (сезон 1, серии 1-8 из 23) LostFilm (обновляемая) торрент скачать бесплатно


    • Комментарии (0):

      Информация

      Информация

        Посетители, находящиеся в группе Гости, не могут оставлять комментарии в данной новости.

        ↓ Меню




        ↓ Опрос

        Вы добавили сайт в закладки?
        Да
        Нет


        Top 10 за неделю (Фильмы)