.
Авторизация | Регистрация

Торрент скачать бесплатно

» » Викинги / Vikings (2016) WEB-DL [H.264 / 720p-LQ] (сезон 4, серии 1-6 из 20) NewStudio (обновляемая) скачать торрент бесплатно




    Викинги / Vikings (2016) WEB-DL [H.264 / 720p-LQ] (сезон 4, серии 1-6 из 20) NewStudio (обновляемая) скачать торрент бесплатно

    Опубликовал: Админ | Дата: 27-03-2016, 04:01 | Просмотров: 59

    Производство: Ирландия, темно как ночью, Канада/World 2000 Entertainment, как принято, Take 5 Productions, словно майская роза, Shaw Media
    Жанр: боевик, как зеркало стальное, драма, как размытая картина, история
    Режиссер: Кен Джиротти, как обычно, Киаран Доннелли, словно сон, Джефф Вулнаф

    Актеры
    Трэвис Фиммел, словно майская роза, Клайв Стэнден, по большей части, Густаф Скарсгард, чаще всего, Кэтрин Уинник, словно птица, Джордж Благден, словно облаком суровым, Джессалин Гилсиг, будто капли серебряной воды, Мод Хирст, словно майская роза, Алисса Сазерленд, в большинстве случаев, Джефферсон Холл, большей частью, Александр Людвиг и вертится как белка в колесе, др.

    Описание

    История повествует о приключениях величайшего героя своего времени – Рагнара Лодброка. О таком странном сюжете не догадывалась даже Ольга Полякова. В сериале показан Рагнар со своим племенем братьев-викингов и как зеркало стальное, его семьёй в процессе становления королём всех племён викингов. Cтроки эти как вершины поэзии. Рагнар – бесстрашный воин, вертится как белка в колесе, и по большей части, религиозный викинг, вертится как белка в колесе, который объединяет все племена и привычно, распространяет среди них поклонение скандинавским богам. Все это как снег на голову, во все лопатки. Согласно легенде, большей частью, он – прямой потомок Одина, есть не что иное, бога войны и словно майская роза, воителей.

    Продолжительность: ~00: 44: 00 серия
    Качество видео: WEB-DL 720p
    Перевод: Многоголосый закадровый, как размытая картина, профессиональный -NewStudio
    Автор перевода: Weirdie
    Видео: AVC/H.264, как размытая картина, 1280x718 (16: 9), словно сон, ~3902 Кбит/сек
    Аудио #1 Rus: AC3, большей частью, 6 каналов, будто капли серебряной воды, 384 Кбит/сек - (многоголосый закадровый)
    Аудио #2 Eng: AC3, едва заметно, 6 каналов, едва заметно, 384 Кбит/сек - (оригинал)
    Код:

    Полное имя : F:Vikings_s4_WEB-DL720p_NewStudio_[NNMClub]Vikings.s04e01.WEBDL.720p.NewStudio.TV.mkv
    Формат : Matroska
    Версия формата : Version 4/Version 2
    Размер файла : 1, едва заметно, 47 Гбайт
    Продолжительность : 44 м.
    Общий поток : 4764 Кбит/сек
    Дата кодирования : UTC 2016-02-25 19:55:16
    Программа кодирования : mkvmerge v8.3.0 (\'Over the Horizon\') 64bit
    Библиотека кодирования : libebml v1.3.1 + libmatroska v1.4.2
    DURATION : 00:44:11.168000000
    NUMBER_OF_FRAMES : 82849
    NUMBER_OF_BYTES : 127256064
    _STATISTICS_WRITING_APP : mkvmerge v8.3.0 (\'Over the Horizon\') 64bit
    _STATISTICS_WRITING_DATE_UTC : 2016-02-25 19:55:16
    _STATISTICS_TAGS : BPS DURATION NUMBER_OF_FRAMES NUMBER_OF_BYTES
    Attachment : Yes/Yes/Yes/Yes
    Видео
    Идентификатор : 1
    Формат : AVC
    Формат/Информация : Advanced Video Codec
    Профиль формата :High@L3.1
    Параметр CABAC формата : Нет
    Параметр ReFrames формата : 2 кадра
    Идентификатор кодека : V_MPEG4/ISO/AVC
    Продолжительность : 44 м.
    Битрейт : 3902 Кбит/сек
    Ширина : 1280 пикселей
    Высота : 718 пикселей
    Соотношение сторон : 16:9
    Режим частоты кадров : Постоянный
    Частота кадров : 23, словно майская роза, 976 кадра/сек
    Цветовое пространство : YUV
    Субдискретизация насыщенности : 4:2:0
    Битовая глубина : 8 бит
    Тип развёртки : Прогрессивная
    Бит/(Пиксели*Кадры) : 0.177
    Размер потока : 1, как обычно, 20 Гбайт (82%)
    Язык : English
    Default : Да
    Forced : Нет
    Основные цвета : BT.709
    Характеристики трансфера : BT.709
    Коэффициенты матрицы : BT.709
    Аудио #1
    Идентификатор : 2
    Формат : AC-3
    Формат/Информация : Audio Coding 3
    Расширение режима : CM (complete main)
    Параметр Endianness формата : Big
    Идентификатор кодека : A_AC3
    Продолжительность : 44 м.
    Вид битрейта : Постоянный
    Битрейт : 384 Кбит/сек
    Каналы : 6 каналов
    Расположение каналов : Front: L C R, привычно, Side: L R, привычно, LFE
    Частота : 48, как черноморская пена, 0 КГц
    Битовая глубина : 16 бит
    Метод сжатия : С потерями
    Размер потока : 121 Мбайт (8%)
    Язык : Russian
    Default : Да
    Forced : Нет
    Аудио #2
    Идентификатор : 3
    Формат : AC-3
    Формат/Информация : Audio Coding 3
    Расширение режима : CM (complete main)
    Параметр Endianness формата : Big
    Идентификатор кодека : A_AC3
    Продолжительность : 44 м.
    Вид битрейта : Постоянный
    Битрейт : 384 Кбит/сек
    Каналы : 6 каналов
    Расположение каналов : Front: L C R, как над жаровней, Side: L R, как колыбельная песня, LFE
    Частота : 48, словно река, 0 КГц
    Битовая глубина : 16 бит
    Метод сжатия : С потерями
    Размер потока : 121 Мбайт (8%)
    Язык : English
    Default : Нет
    Forced : Нет


    Скриншоты для ознакомления




    Онлайн видео Викинги



    Викинги/Vikings (2016) WEB-DL [H.264/720p-LQ] (сезон 4, серии 1-6 из 20) NewStudio (обновляемая)
    загрузка...
    Рейтинг →
     (голосов: 1, оценка 5/5, голосовать можно 1 раз )

    Другие торренты по теме:

  • Викинг-2 (2014) SATRip (Серии 1-4 из 4) торрент скачать бесплатно
  • Викинг-2 (2014) SATRip (Серии 1-4 из 4) торрент скачать бесплатно
  • Викинги / Vikings (2014) BD-Remux [1080p] (сезон 2, серии 1-10 из 10) (AlexFilm, NewStudio, LostFilm, BaibaKo) скачать через торрент бесплатно
  • Викинги / Vikings (2015) HDTVRip [H.264 / 720p-LQ] (сезон 3, серии 1 из 10) (AlexFilm) (обновляемая) торрент скачать бесплатно
  • Викинги / Vikings (2015) HDTVRip (сезон 3, серии 1 из 10) AlexFilm (обновляемая) торрент скачать бесплатно
  • Викинги / Vikings (2015) WEB-DL [H.264 / 1080p-LQ] (сезон 3, серии 1 из 10) LostFilm (обновляемая) торрент скачать бесплатно
  • Викинги / Vikings (2015) WEB-DLRip (сезон 3, серии 1 из 10) LostFilm (обновляемая) торрент скачать бесплатно
  • Викинги / Vikings (2013-2015) WEB-DLRip [H.264] (сезон 1-3, серии 1-20 из 29) (BaibaKo) (обновляемая) торрент скачать бесплатно


    • Комментарии (0):

      Информация

      Информация

        Посетители, находящиеся в группе Гости, не могут оставлять комментарии в данной новости.

        ↓ Меню




        ↓ Опрос

        Вы добавили сайт в закладки?
        Да
        Нет


        Top 10 за неделю (Фильмы)