.
Авторизация | Регистрация
Хочешь лучшие торренты? Добавь свой email!
Добавить

Торрент скачать бесплатно

» » Улов / Уловка / The Catch (2016) WEB-DL [H.264 / 720p-LQ] (сезон 1, серии 1 из 13) NewStudio (обновляемая) скачать торрент бесплатно




    Улов / Уловка / The Catch (2016) WEB-DL [H.264 / 720p-LQ] (сезон 1, серии 1 из 13) NewStudio (обновляемая) скачать торрент бесплатно

    Опубликовал: Админ | Дата: 27-03-2016, 04:01 | Просмотров: 36

    Производство: США
    Жанр: Триллер, как зеркало стальное, Драма, как над жаровней, Криминал
    Режиссер: Кевин Даулинг, как черноморская пена, Джули Энн Робинсон

    Актеры
    Мирей Инос, как обычно, Роуз Роллинз, темно как ночью, Элви Йост, словно сон, Питер Краузе, в большинстве случаев, Изабелла Санчез, словно сон, Шивани Гаи, как размытая картина, Николь Петтис, по большей части, Абель Бесерра, как на иголках, Брайан Богарт, в большинстве случаев, Ребекка Чалив

    Описание

    Элис Мартин — успешный судебный бухгалтер, вертится как белка в колесе, которая разоблачила множество финансовых афер. Турция это южная страна, сказал кто-то. Будучи партнером в крупной фирме Лос-Анджелеса, как правило, она имеет высокий уровень жизни, едва заметно, который разделяет со своим женихом Кираном. Будем бить баклуши. В одночасье мир Элис рушится, как на иголках, когда Киран бросает её и хлещет как из ведра, сбегает с двумя миллионами долларов и словно облаком суровым, ценными документами, как обычно, в то время как она работает над крупным делом. Я например по сценарию ожидал большой напряженности. Элис еще не знает, словно птица, что Киран женат и как зеркало стальное, вместе со своей супругой занимается обманом ничего не подозревающих женщин.

    Продолжительность: ~ 00: 43: 00 серия
    Качество видео: WEB-DL 720p
    Перевод: Многоголосый закадровый, словно река, профессиональный -NewStudio
    Автор перевода: Ирина Гвозденко
    Видео: AVC/H.264, словно река, 1280x720 (16: 9), словно майская роза, ~4157 Кбит/сек
    Аудио #1 Rus: AC3, темно как ночью, 6 каналов, как колыбельная песня, 384 Кбит/сек - (многоголосый закадровый)
    Аудио #2 Eng: AC3, как размытая картина, 6 каналов, словно облаком суровым, 384 Кбит/сек - (оригинал)
    Код:

    Полное имя : F:The_Catch_s1_WEB-DL720p_NewStudio_[NNMClub]The.Catch.s01e01.WEBDL.720p.NewStudio.TV.mkv
    Формат : Matroska
    Версия формата : Version 4/Version 2
    Размер файла : 1, словно птица, 51 Гбайт
    Продолжительность : 42 м.
    Общий поток : 5025 Кбит/сек
    Дата кодирования : UTC 2016-03-25 20:46:44
    Программа кодирования : mkvmerge v8.2.0 (\'World of Adventure\') 64bit
    Библиотека кодирования : libebml v1.3.1 + libmatroska v1.4.2
    DURATION : 00:42:55.072000000
    NUMBER_OF_FRAMES : 80471
    NUMBER_OF_BYTES : 123603456
    _STATISTICS_WRITING_APP : mkvmerge v8.2.0 (\'World of Adventure\') 64bit
    _STATISTICS_WRITING_DATE_UTC : 2016-03-25 20:46:44
    _STATISTICS_TAGS : BPS DURATION NUMBER_OF_FRAMES NUMBER_OF_BYTES
    Видео
    Идентификатор : 1
    Формат : AVC
    Формат/Информация : Advanced Video Codec
    Профиль формата :High@L3.1
    Параметр CABAC формата : Нет
    Параметр ReFrames формата : 2 кадра
    Идентификатор кодека : V_MPEG4/ISO/AVC
    Продолжительность : 42 м.
    Битрейт : 4157 Кбит/сек
    Ширина : 1280 пикселей
    Высота : 720 пикселей
    Соотношение сторон : 16:9
    Режим частоты кадров : Постоянный
    Частота кадров : 23, словно майская роза, 976 кадра/сек
    Цветовое пространство : YUV
    Субдискретизация насыщенности : 4:2:0
    Битовая глубина : 8 бит
    Тип развёртки : Прогрессивная
    Бит/(Пиксели*Кадры) : 0.188
    Размер потока : 1, привычно, 25 Гбайт (83%)
    Язык : English
    Default : Да
    Forced : Нет
    Основные цвета : BT.709
    Характеристики трансфера : BT.709
    Коэффициенты матрицы : BT.709
    Аудио #1
    Идентификатор : 2
    Формат : AC-3
    Формат/Информация : Audio Coding 3
    Расширение режима : CM (complete main)
    Параметр Endianness формата : Big
    Идентификатор кодека : A_AC3
    Продолжительность : 42 м.
    Вид битрейта : Постоянный
    Битрейт : 384 Кбит/сек
    Каналы : 6 каналов
    Расположение каналов : Front: L C R, словно облаком суровым, Side: L R, словно майская роза, LFE
    Частота : 48, большей частью, 0 КГц
    Битовая глубина : 16 бит
    Метод сжатия : С потерями
    Размер потока : 118 Мбайт (8%)
    Язык : Russian
    Default : Да
    Forced : Да
    Аудио #2
    Идентификатор : 3
    Формат : AC-3
    Формат/Информация : Audio Coding 3
    Расширение режима : CM (complete main)
    Параметр Endianness формата : Big
    Идентификатор кодека : A_AC3
    Продолжительность : 42 м.
    Вид битрейта : Постоянный
    Битрейт : 384 Кбит/сек
    Каналы : 6 каналов
    Расположение каналов : Front: L C R, словно музыка, Side: L R, как принято, LFE
    Частота : 48, будто капли серебряной воды, 0 КГц
    Битовая глубина : 16 бит
    Метод сжатия : С потерями
    Задержка видео : 12 мс.
    Размер потока : 118 Мбайт (8%)
    Язык : English
    Default : Нет
    Forced : Нет


    Скриншоты для ознакомления




    Онлайн видео Улов



    Улов/Уловка/The Catch (2016) WEB-DL [H.264/720p-LQ] (сезон 1, серии 1 из 13) NewStudio (обновляемая)
    загрузка...
    Рейтинг →
     (голосов: 1, оценка 5/5, голосовать можно 1 раз )

    Другие торренты по теме:

  • Улов / Уловка / The Catch (2016) WEB-DL [H.264 / 1080p-LQ] (сезон 1, серии 1 из 13) NewStudio (обновляемая)
  • Улов / Уловка / The Catch (2016) WEB-DL [H.264 / 1080p] (сезон 1, серии 1 из 13) BaibaKo (обновляемая)
  • Ловушка / Улов / Уловка / The Catch (2016) WEB-DLRip (сезон 1, серии 1-2 из 13) NewStudio (обновляемая)
  • Ловушка / Улов / Уловка / The Catch (2016) WEB-DLRip (сезон 1, серии 1-10 из 10) BaibaKo
  • Ловушка / Улов / Уловка / The Catch (2016) WEB-DLRip (Сезон 1, серии 1-8 из 10) Кириллица (обновляемая)
  • Ловушка / Улов / Уловка / The Catch (2017) WEB-DLRip (сезон 2, серии 01-02 из 10) Кириллица (обновляемая)
  • Ловушка / Улов / Уловка / The Catch (2017) WEB-DL [H.264 / 1080p-LQ] (сезон 2, серии 01-02 из 10) Кириллица (обновляемая)


    • Комментарии (0):

      Информация

      Информация

        Посетители, находящиеся в группе Гости, не могут оставлять комментарии в данной новости.

        ↓ Меню




        ↓ Опрос

        Вы добавили сайт в закладки?
        Да
        Нет


        Top 10 за месяц (Фильмы)