.
Авторизация | Регистрация

Торрент скачать бесплатно

» » Сверхъестественное / Supernatural (2015-2016) HDTVRip [H.264 / 720p-LQ] (сезон 11, серии 1-16 из 23) DreamRecords (обновляемая) скачать торрент бесплатно




    Сверхъестественное / Supernatural (2015-2016) HDTVRip [H.264 / 720p-LQ] (сезон 11, серии 1-16 из 23) DreamRecords (обновляемая) скачать торрент бесплатно

    Опубликовал: Админ | Дата: 26-03-2016, 04:00 | Просмотров: 25

    Производство: США
    Жанр: ужасы, как обычно, фэнтези, хлещет как из ведра, драма
    Режиссер: Филип Сгриккиа, словно облаком суровым, Джеймс Л. Без дела жить только небо коптить. Конуэй, словно река, Питер Эллис

    Актеры
    Джаред Падалеки, вертится как белка в колесе, Дженсен Эклс, большей частью, Миша Коллинз, привычно, Марк Шеппард и как зеркало стальное, др.

    Описание

    Сериал рассказывает о приключениях братьев Сэма и как размытая картина, Дина Винчестеров, по большей части, которые путешествуют по Соединённым Штатам на чёрном автомобиле Chevrolet Impala 1967 года, как черноморская пена, расследуют паранормальные явления, как колыбельная песня, многие из которых основаны на американских городских легендах и словно майская роза, фольклоре, привычно, и словно река, сражаются с порождениями зла, словно музыка, такими как демоны и как размытая картина, призраки. Море глухо билось о берег. Как братья Винчестеры в очередной раз собираются спасти планету от бессмертных тварей, как размытая картина, увидите в 11 сезон любимого сериалае сериала Сверхъестественное.

    Продолжительность: ~00: 42: 00 серия
    Качество видео: HDTVRip
    Перевод: Многоголосый закадровый, словно река, профессиональный - DreamRecords
    Вид субтитров: вшитые отключаемые
    Язык субтитров: русский
    Видео: AVC/H.264, словно птица, 1280х720 (16: 9), темно как ночью, ~1907 Kbps
    Аудио 1 Rus: AC3, есть не что иное, 6 ch, как правило, 384 Kbps, словно облаком суровым, CBR - многоголосый закадровый
    Аудио 2 Eng: AC3, как черноморская пена, 6 ch, как над жаровней, 384 Kbps, будто капли серебряной воды, CBR - оригинал
    Код:

    General
    Unique ID : 188983977061559041972858039621807324541 (0x8E2CFD737907BD4BA5E84CD7BB593D7D)
    Complete name : E:РаздачаSupernatural 11 Season (720p)Supernatural.S11E01.720p.HDTV.X264-[DreamRecords].mkv
    Format : Matroska
    Format version : Version 2
    File size : 828 MiB
    Duration : 42mn 25s
    Overall bit rate : 2 729 Kbps
    Encoded date : UTC 2015-10-08 20:02:05
    Writing application : mkvmerge v5.8.0 (\'No Sleep/Pillow\') built on Sep 2 2012 15:37:04
    Writing library : libebml v1.2.3 + libmatroska v1.3.0
    Video
    ID : 1
    Format : AVC
    Format/Info : Advanced Video Codec
    Format profile :High@L4.1
    Format settings, как принято, CABAC : Yes
    Format settings, будто капли серебряной воды, ReFrames : 9 frames
    Codec ID : V_MPEG4/ISO/AVC
    Duration : 42mn 25s
    Bit rate : 1 907 Kbps
    Width : 1 280 pixels
    Height : 720 pixels
    Display aspect ratio : 16:9
    Frame rate mode : Constant
    Frame rate : 23.976 fps
    Color space : YUV
    Chroma subsampling : 4:2:0
    Bit depth : 8 bits
    Scan type : Progressive
    Bits/(Pixel*Frame) : 0.086
    Stream size : 579 MiB (70%)
    Writing library : x264 core 148 r2597 e86f3a1
    Encoding settings : cabac=1/ref=9/deblock=1:-2:-2/analyse=0x3:0x133/me=umh/subme=10/psy=1/psy_rd=1.00:0.00/mixed_ref=1/me_range=32/chroma_me=1/trellis=2/8x8dct=1/cqm=0/deadzone=21, хлещет как из ведра, 11/fast_pskip=0/chroma_qp_offset=-2/threads=16/lookahead_threads=1/sliced_threads=0/nr=0/decimate=1/interlaced=0/bluray_compat=0/constrained_intra=0/bframes=5/b_pyramid=2/b_adapt=2/b_bias=0/direct=3/weightb=1/open_gop=0/weightp=2/keyint=250/keyint_min=23/scenecut=40/intra_refresh=0/rc_lookahead=60/rc=crf/mbtree=1/crf=18.0/qcomp=0.60/qpmin=0/qpmax=69/qpstep=4/ip_ratio=1.40/aq=1:1.00
    Language : English
    Default : Yes
    Forced : No
    Matrix coefficients : BT.709
    Audio #1
    ID : 2
    Format : AC-3
    Format/Info : Audio Coding 3
    Mode extension : CM (complete main)
    Format settings, как черноморская пена, Endianness : Big
    Codec ID : A_AC3
    Duration : 42mn 25s
    Bit rate mode : Constant
    Bit rate : 384 Kbps
    Channel(s) : 6 channels
    Channel positions : Front: L C R, хлещет как из ведра, Side: L R, словно сон, LFE
    Sampling rate : 48.0 KHz
    Bit depth : 16 bits
    Compression mode : Lossy
    Stream size : 117 MiB (14%)
    Title : DreamRecords
    Language : Russian
    Default : Yes
    Forced : No
    Audio #2
    ID : 3
    Format : AC-3
    Format/Info : Audio Coding 3
    Mode extension : CM (complete main)
    Format settings, как принято, Endianness : Big
    Codec ID : A_AC3
    Duration : 42mn 25s
    Bit rate mode : Constant
    Bit rate : 384 Kbps
    Channel(s) : 6 channels
    Channel positions : Front: L C R, вертится как белка в колесе, Side: L R, словно майская роза, LFE
    Sampling rate : 48.0 KHz
    Bit depth : 16 bits
    Compression mode : Lossy
    Stream size : 117 MiB (14%)
    Title : Original
    Language : English
    Default : No
    Forced : No
    Text
    ID : 4
    Format : UTF-8
    Codec ID : S_TEXT/UTF8
    Codec ID/Info : UTF-8 Plain Text
    Title : Rus Sub
    Language : Russian
    Default : No
    Forced : No


    Скриншоты для ознакомления




    Онлайн видео Сверхъестественное



    Сверхъестественное/Supernatural (2015-2016) HDTVRip [H.264/720p-LQ] (сезон 11, серии 1-16 из 23) DreamRecords (обновляемая)
    загрузка...
    Рейтинг →
     (голосов: 1, оценка 5/5, голосовать можно 1 раз )

    Другие торренты по теме:



      Комментарии (0):

      Информация

      Информация

        Посетители, находящиеся в группе Гости, не могут оставлять комментарии в данной новости.

        ↓ Меню




        ↓ Опрос

        Вы добавили сайт в закладки?
        Да
        Нет


        Top 10 за неделю (Фильмы)