.
Авторизация | Регистрация
Хочешь лучшие торренты? Добавь свой email!
Добавить

Торрент скачать бесплатно

» » Готэм / Gotham (2015) WEB-DLRip (сезон 2, серии 1-15 из 22) LostFilm (обновляемая) торрент скачать бесплатно




    Готэм / Gotham (2015) WEB-DLRip (сезон 2, серии 1-15 из 22) LostFilm (обновляемая) торрент скачать бесплатно

    Опубликовал: Админ | Дата: 26-03-2016, 04:00 | Просмотров: 32

    Производство: США/Primrose Hill Productions, DC Comics, Warner Bros. Television
    Жанр: Триллер, Драма, Криминал, Детектив
    Режиссер: Дэнни Кэннон

    Актеры
    Бен МакКензи, Донал Лог, Сара Пэкстон, Джада Пинкетт Смит, Шон Пертуи, Эрин Ричардс, Робин Тейлор, Дэвид Мазоуз, Забрина Гевара, Самрен Бикондова и др.

    Описание

    Новый сотрудник департамента полиции Готэма, детектив Джеймс Гордон и его напарник Харви Буллок назначаются начальником отдела полиции Готэма по расследованию убийств Сарой Эссен на самое громкое дело последних лет - убийство Томаса и Марты Уэйн. Во время расследования Гордон знакомится с сыном убитых - Брюсом Уэйном, который после смерти родителей находится под опекой своего дворецкого Альфреда. Одновременно с расследованием убийства Гордону приходится бороться с местным главарем банды Фиш Муни, а также с будущими злодеями Готэма: Селиной Кайл и Освальдом Кобблпотом. В итоге, Гордон фокусируется на дружбе с молодым Брюсом, чтобы в будущем сделать из маленького мальчика Тёмного рыцаря - защитника

    Возраст: 16+ (зрителям, достигшим 16 лет)
    Продолжительность: ~00: 44: 00 серия
    Качество видео: WEB-DLRip
    Перевод: Многоголосый закадровый, профессиональный -LostFilm
    Субтитры: Отсутствуют
    Видео: Xvid, 720x400, ~23.976 fps, ~2000 kbps, 0.29 bit/pixel
    Аудио 1: AC3, 48.0 KHz, 6 ch, ~384 kbps - многоголосый (LostFilm)
    Аудио 2: AC3, 48.0 KHz, 6 ch, ~384 kbps - оригинал (английский)
    Код:

    General
    Complete name : D:Готэм (Сезон 2)Gotham.s02e14.rus.eng.avi
    Format : AVI
    Format/Info : Audio Video Interleave
    File size : 876 MiB
    Duration : 44mn 1s
    Overall bit rate : 2 782 Kbps
    Writing application : VirtualDubMod 1.5.10.2 (build 2540/release)
    Writing library : VirtualDubMod build 2540/release
    Video
    ID : 0
    Format : MPEG-4 Visual
    Format profile : Advanced Simple@L5
    Format settings, BVOP : 1
    Format settings, QPel : No
    Format settings, GMC : No warppoints
    Format settings, Matrix : Default (MPEG)
    Codec ID : XVID
    Codec ID/Hint : XviD
    Duration : 44mn 1s
    Bit rate : 2 000 Kbps
    Width : 720 pixels
    Height : 400 pixels
    Display aspect ratio : 16:9
    Frame rate : 23.976 fps
    Color space : YUV
    Chroma subsampling : 4:2:0
    Bit depth : 8 bits
    Scan type : Progressive
    Compression mode : Lossy
    Bits/(Pixel*Frame) : 0.290
    Stream size : 630 MiB (72%)
    Writing library : XviD 73
    Audio #1
    ID : 1
    Format : AC-3
    Format/Info : Audio Coding 3
    Mode extension : CM (complete main)
    Format settings, Endianness : Big
    Codec ID : 2000
    Duration : 44mn 1s
    Bit rate mode : Constant
    Bit rate : 384 Kbps
    Channel count : 6 channels
    Channel positions : Front: L C R, Side: L R, LFE
    Sampling rate : 48.0 KHz
    Bit depth : 16 bits
    Compression mode : Lossy
    Stream size : 121 MiB (14%)
    Alignment : Split accross interleaves
    Interleave, duration : 42 ms (1.00 video frame)
    Interleave, preload duration : 500 ms
    Audio #2
    ID : 2
    Format : AC-3
    Format/Info : Audio Coding 3
    Mode extension : CM (complete main)
    Format settings, Endianness : Big
    Codec ID : 2000
    Duration : 44mn 1s
    Bit rate mode : Constant
    Bit rate : 384 Kbps
    Channel count : 6 channels
    Channel positions : Front: L C R, Side: L R, LFE
    Sampling rate : 48.0 KHz
    Bit depth : 16 bits
    Compression mode : Lossy
    Stream size : 121 MiB (14%)
    Alignment : Split accross interleaves
    Interleave, duration : 42 ms (1.00 video frame)
    Interleave, preload duration : 500 ms


    Скриншоты для ознакомления




    Онлайн видео Готэм



    Готэм/Gotham (2015) WEB-DLRip (сезон 2, серии 1-15 из 22) LostFilm (обновляемая)
    загрузка...
    Рейтинг →
     (голосов: 1, оценка 5/5, голосовать можно 1 раз )

    Другие торренты по теме:

  • Готэм / Gotham (2014) WEB-DLRip (сезон 1, серии 1 из 16) LostFilm (обновляемая)
  • Готэм / Gotham (2014) WEB-DL [H.264 / 1080p-LQ] (Сезон 1, серия 1 из 16) (NewStudio) (обновляемая)
  • Готэм / Gotham (2014) WEB-DLRip (сезон 1, серии 1 из 16) BaibaKo (обновляемая)
  • Готэм / Gotham (2014) WEB-DL [H.264 / 720p-LQ] (Сезон 1, Серии 1 из 16) (NewStudio) (Обновляемая)
  • Готэм / Gotham (2014) WEBDLRip (Сезон 1, серия 01 из 16) (NewStudio) (обновляемая)
  • Готэм / Gotham (2014) WEB-DL [H.264 / 720p-LQ] (Сезон 1, серия 01 из 16) (BaibaKo) (обновляемая)
  • Готэм / Gotham (2014) WEBRip [H.264 / 720p-LQ] [Трейлер]
  • Готэм (Gotham) / (Сезон 1, серия 1 из 16) LostFilm (2014) [MP4|1280x718] <WEB-DL H.264> скачать через торрент бесплатно


    • Комментарии (0):

      Информация

      Информация

        Посетители, находящиеся в группе Гости, не могут оставлять комментарии в данной новости.

        ↓ Меню




        ↓ Опрос

        Вы добавили сайт в закладки?
        Да
        Нет


        Top 10 за месяц (Фильмы)