.
Авторизация | Регистрация
Хочешь лучшие торренты? Добавь свой email!
Добавить

Торрент скачать бесплатно

» » Подземка / Underground (2016) HDTV [H.264 / 720p-LQ] (сезон 1, серии 1-3 из 10) Sunshine Studio (обновляемая) торрент скачать бесплатно




    Подземка / Underground (2016) HDTV [H.264 / 720p-LQ] (сезон 1, серии 1-3 из 10) Sunshine Studio (обновляемая) торрент скачать бесплатно

    Опубликовал: Админ | Дата: 26-03-2016, 04:00 | Просмотров: 20

    Производство: США/Get Lifted Film Company, Safehouse Pictures, Sony Pictures Television
    Жанр: драма, история
    Режиссер: Энтони Хемингуэй

    Актеры
    Алано Миллер, Кристофер Мелони, Амирах Ванн, Джаннетт Сепва, Андреа Франкл, Теодус Крэйн, Адина Портер, Мэри Кэтерин Духон, Мэттью МакКой

    Описание

    Главными героями сериала станет группа рабов, планирующая смелый побег с плантации в Джорджии. На пути к свободе им предстоит пересечь 600 миль, найти верных друзей — пару тайных аболиционистов, основавших станцию Подземной железной дороги, а также столкнуться с опасными врагами — теми, кто зарабатывает на жизнь, охотясь за беглыми рабами, и не важно в каком состоянии рабы будут возвращены хозяевам, живыми или мертвыми…

    Дата мировой премьеры: 09.03.2016
    Продолжительность: 1-я серия 00: 55: 10
    Качество видео: HDTV H.264/720p-LQ
    Перевод: Двуголосый закадровый, любительский -Sunshine Studio
    Реклама: присутствуют видео, аудио вставки рекламы.
    Видео: AVC/H.264, 1280x720 (16: 9), ~3388 Kbps
    Аудио #1 Rus: AC3, 2 ch, 192 Kbps - двуголосый закадровый, любительский
    Аудио #2 Eng: AC3, 2 ch, 192 kbps - оригинал
    Код:

    Общее
    Полное имя : E:CINEMAСЕРИАЛЫPodzemka S01 Underground (2016) HDTV 720p - SunShineStudioPodzemka S01 Underground (2016) HDTV 720p - SunShineStudioUnderground.S01E01.HDTV.720p.SunShineStudio.mkv
    Формат : Matroska
    Версия формата : Version 1
    Размер файла : 1, 38 Гбайт
    Продолжительность : 55 м.
    Общий поток : 3584 Кбит/сек
    Дата кодирования : UTC 2016-03-12 06:54:14
    Программа кодирования : mkvmerge v2.4.0 (\'Fumbling Towards Ecstasy\') built on Oct 11 2008 20:13:15
    Библиотека кодирования : libebml v0.7.7 + libmatroska v0.8.1
    Видео
    Идентификатор : 1
    Формат : AVC
    Формат/Информация : Advanced Video Codec
    Профиль формата : High@L3
    Параметр CABAC формата : Нет
    Параметр ReFrames формата : 1 кадр
    Идентификатор кодека : V_MPEG4/ISO/AVC
    Продолжительность : 55 м.
    Битрейт : 3321 Кбит/сек
    Номинальный битрейт : 3500 Кбит/сек
    Ширина : 1280 пикселей
    Высота : 720 пикселей
    Соотношение сторон : 16:9
    Режим частоты кадров : Постоянный
    Частота кадров : 29, 970 (29970/1000) кадров/сек
    Цветовое пространство : YUV
    Субдискретизация насыщенности : 4:2:0
    Битовая глубина : 8 бит
    Тип развёртки : Прогрессивная
    Бит/(Пиксели*Кадры) : 0.120
    Размер потока : 1, 28 Гбайт (93%)
    Default : Да
    Forced : Нет
    Аудио
    Идентификатор : 2
    Формат : AC-3
    Формат/Информация : Audio Coding 3
    Расширение режима : CM (complete main)
    Параметр Endianness формата : Big
    Идентификатор кодека : A_AC3
    Продолжительность : 55 м.
    Вид битрейта : Постоянный
    Битрейт : 192 Кбит/сек
    Каналы : 2 канала
    Расположение каналов : Front: L R
    Частота : 48, 0 КГц
    Частота кадров : 31, 250 кадров/сек (1536 spf)
    Метод сжатия : С потерями
    Размер потока : 75, 8 Мбайт (5%)
    Default : Да
    Forced : Нет


    Скриншоты для ознакомления




    Онлайн видео Подземка



    Подземка/Underground (2016) HDTV [H.264/720p-LQ] (сезон 1, серии 1-3 из 10) Sunshine Studio (обновляемая)
    загрузка...
    Рейтинг →
     (голосов: 1, оценка 4/5, голосовать можно 1 раз )

    Другие торренты по теме:

  • Подземка / Underground (2016) WEB-DLRip (сезон 1, серии 1-10 из 10) BaibaKo


    • Комментарии (0):

      Информация

      Информация

        Посетители, находящиеся в группе Гости, не могут оставлять комментарии в данной новости.

        ↓ Меню




        ↓ Опрос

        Вы добавили сайт в закладки?
        Да
        Нет


        Top 10 за месяц (Фильмы)