.
Авторизация | Регистрация
Хочешь лучшие торренты? Добавь свой email!
Добавить

Торрент скачать бесплатно

» » Американцы / The Americans (2016) WEB-DL [H.264 / 1080p] (сезон 4, серии 1-2 из 13) NewStudio (обновляемая) торрент скачать бесплатно




    Американцы / The Americans (2016) WEB-DL [H.264 / 1080p] (сезон 4, серии 1-2 из 13) NewStudio (обновляемая) торрент скачать бесплатно

    Опубликовал: Админ | Дата: 26-03-2016, 04:00 | Просмотров: 30

    Производство: США/DreamWorks Television
    Жанр: Боевик, Триллер, Драма, Криминал
    Режиссер: Адам Аркин, Гэвин О`Коннор, Томас Шламми

    Актеры
    Кери Расселл, Мэттью Рис, Ноа Эммерик, Холли Тейлор, Кейдрич Селлати, Аннет Махендру, Сьюзэн Миснер, Элисон Райт, Лев Горн, Ричард Томас, Марго Мартиндейл, Коста Ронин, Максимилиано Эрнандес, Дэн Флаэрти, Аарон Роман Уэй, Коттер Смит, Питер фон Берг, Энтони Аркин, Виталий Бенко, Эйми Карреро, Джон Кэрролл Линч, Тони Патано, Пегги Скотт, Маша Боровикова, Майкл Гэстон, Натали Голд, Ричард Кляйн

    Описание

    История о сложном браке двух агентов КГБ, которые под видом американцев заселяются в пригород Вашингтона сразу после того, как президентом избирают Рейгана. Подставной брак Филлипа и Элизабет с каждым днем становится все более настоящим и эмоциональным, несмотря на эскалацию холодной войны и опасные отношения, которые они должны поддерживать с сетью шпионов и вертится как белка в колесе информаторов. Напряжение нарастает, когда появляется новый сосед Стэн, агент ФБР, который работает в контрразведке.

    Дата мировой премьеры: 16.03.2016
    Продолжительность: 1-я серия 00: 49: 16
    Качество видео: WEB-DL
    Перевод: Многоголосый закадровый, профессиональный -NewStudio
    Видео: AVC/H.264, 1920x1080 (16: 9), ~4970 Kbps
    Аудио #1 Rus: AC3, 6 ch, 384 kbps — многоголосый закадровый
    Аудио #2 Eng: AC3, 6 ch, 384 kbps — оригинал
    Код:

    Общее
    Полное имя : E:CINEMAСЕРИАЛЫAmerikantcy S04 The Americans WEBDL 1080p - NewStudioAmerikantcy S04 The Americans WEBDL 1080p - NewStudioThe.Americans.s04e01.WEBDL.1080p.NewStudio.TV.mkv
    Формат : Matroska
    Версия формата : Version 4/Version 2
    Размер файла : 1, 98 Гбайт
    Продолжительность : 49 м.
    Общий поток : 5740 Кбит/сек
    Дата кодирования : UTC 2016-03-18 08:21:24
    Программа кодирования : mkvmerge v8.3.0 (\'Over the Horizon\') 64bit
    Библиотека кодирования : libebml v1.3.1 + libmatroska v1.4.2
    Видео
    Идентификатор : 1
    Формат : AVC
    Формат/Информация : Advanced Video Codec
    Профиль формата : High@L4
    Параметр CABAC формата : Да
    Параметр ReFrames формата : 4 кадра
    Идентификатор кодека : V_MPEG4/ISO/AVC
    Продолжительность : 49 м.
    Битрейт : 4970 Кбит/сек
    Ширина : 1920 пикселей
    Высота : 1080 пикселей
    Соотношение сторон : 16:9
    Режим частоты кадров : Постоянный
    Частота кадров : 23, 976 (24000/1001) кадра/сек
    Цветовое пространство : YUV
    Субдискретизация насыщенности : 4:2:0
    Битовая глубина : 8 бит
    Тип развёртки : Прогрессивная
    Бит/(Пиксели*Кадры) : 0.100
    Размер потока : 1, 71 Гбайт (87%)
    Язык : English
    Default : Да
    Forced : Нет
    Цветовой диапазон : Limited
    Основные цвета : BT.709
    Характеристики трансфера : BT.709
    Коэффициенты матрицы : BT.709
    Аудио #1
    Идентификатор : 2
    Формат : AC-3
    Формат/Информация : Audio Coding 3
    Расширение режима : CM (complete main)
    Параметр Endianness формата : Big
    Идентификатор кодека : A_AC3
    Продолжительность : 49 м.
    Вид битрейта : Постоянный
    Битрейт : 384 Кбит/сек
    Каналы : 6 каналов
    Расположение каналов : Front: L C R, Side: L R, LFE
    Частота : 48, 0 КГц
    Частота кадров : 31, 250 кадров/сек (1536 spf)
    Метод сжатия : С потерями
    Размер потока : 135 Мбайт (7%)
    Язык : Russian
    Default : Да
    Forced : Нет
    Аудио #2
    Идентификатор : 3
    Формат : AC-3
    Формат/Информация : Audio Coding 3
    Расширение режима : CM (complete main)
    Параметр Endianness формата : Big
    Идентификатор кодека : A_AC3
    Продолжительность : 49 м.
    Вид битрейта : Постоянный
    Битрейт : 384 Кбит/сек
    Каналы : 6 каналов
    Расположение каналов : Front: L C R, Side: L R, LFE
    Частота : 48, 0 КГц
    Частота кадров : 31, 250 кадров/сек (1536 spf)
    Метод сжатия : С потерями
    Размер потока : 135 Мбайт (7%)
    Язык : English
    Default : Нет
    Forced : Нет


    Скриншоты для ознакомления




    Онлайн видео Американцы



    Американцы/The Americans (2016) WEB-DL [H.264/1080p] (сезон 4, серии 1-2 из 13) NewStudio (обновляемая)
    загрузка...
    Рейтинг →
     (голосов: 1, оценка 5/5, голосовать можно 1 раз )

    Другие торренты по теме:

  • Американцы / The Americans (2015) WEBDLRip (сезон 3, серии 01 из 13) (NewStudio) (обновляемая)
  • Американцы / The Americans (2015) WEB-DL [H.264 / 720p-LQ] (сезон 3, серии 1 из 13) NewStudio (обновляемая) скачать через торрент бесплатно
  • Американцы / The Americans (2016) WEB-DL [H.264 / 720p-LQ] (сезон 4, серии 1 из 13) NewStudio (обновляемая)
  • Американцы / The Americans (2016) WEB-DLRip (сезон 4, серии 1-3 из 13) NewStudio (обновляемая)
  • Мои дорогие американцы / My Fellow Americans (1996) WEB-DL [H.264 / 1080p-LQ]
  • Американцы / The Americans (2017) WEB-DLRip (сезон 5, серии 1 из 13) NewStudio (обновляемая)


    • Комментарии (0):

      Информация

      Информация

        Посетители, находящиеся в группе Гости, не могут оставлять комментарии в данной новости.

        ↓ Меню




        ↓ Опрос

        Вы добавили сайт в закладки?
        Да
        Нет


        Top 10 за месяц (Фильмы)