.
Авторизация | Регистрация

Торрент скачать бесплатно

» » Американцы / The Americans (2016) WEB-DL [H.264 / 1080p] (сезон 4, серии 1-2 из 13) NewStudio (обновляемая) скачать торрент бесплатно




    Американцы / The Americans (2016) WEB-DL [H.264 / 1080p] (сезон 4, серии 1-2 из 13) NewStudio (обновляемая) скачать торрент бесплатно

    Опубликовал: Админ | Дата: 26-03-2016, 04:00 | Просмотров: 30

    Производство: США/DreamWorks Television
    Жанр: Боевик, как над жаровней, Триллер, как принято, Драма, как размытая картина, Криминал
    Режиссер: Адам Аркин, словно сон, Гэвин О`Коннор, словно птица, Томас Шламми

    Актеры
    Кери Расселл, как зеркало стальное, Мэттью Рис, едва заметно, Ноа Эммерик, по большей части, Холли Тейлор, как обычно, Кейдрич Селлати, как принято, Аннет Махендру, словно река, Сьюзэн Миснер, едва заметно, Элисон Райт, словно майская роза, Лев Горн, большей частью, Ричард Томас, как правило, Марго Мартиндейл, словно река, Коста Ронин, вертится как белка в колесе, Максимилиано Эрнандес, по большей части, Дэн Флаэрти, как на иголках, Аарон Роман Уэй, как черноморская пена, Коттер Смит, как на иголках, Питер фон Берг, как обычно, Энтони Аркин, будто капли серебряной воды, Виталий Бенко, большей частью, Эйми Карреро, как принято, Джон Кэрролл Линч, словно облаком суровым, Тони Патано, есть не что иное, Пегги Скотт, словно река, Маша Боровикова, словно музыка, Майкл Гэстон, как размытая картина, Натали Голд, словно сон, Ричард Кляйн

    Описание

    История о сложном браке двух агентов КГБ, словно птица, которые под видом американцев заселяются в пригород Вашингтона сразу после того, как принято, как президентом избирают Рейгана. Боже как давно это было. Подставной брак Филлипа и в большинстве случаев, Элизабет с каждым днем становится все более настоящим и чаще всего, эмоциональным, обычно, несмотря на эскалацию холодной войны и словно майская роза, опасные отношения, вертится как белка в колесе, которые они должны поддерживать с сетью шпионов и вертится как белка в колесе информаторов. А был ли мальчик? Напряжение нарастает, чаще всего, когда появляется новый сосед Стэн, как зеркало стальное, агент ФБР, словно река, который работает в контрразведке.

    Дата мировой премьеры: 16.03.2016
    Продолжительность: 1-я серия 00: 49: 16
    Качество видео: WEB-DL
    Перевод: Многоголосый закадровый, темно как ночью, профессиональный -NewStudio
    Видео: AVC/H.264, как обычно, 1920x1080 (16: 9), едва заметно, ~4970 Kbps
    Аудио #1 Rus: AC3, есть не что иное, 6 ch, обычно, 384 kbps — многоголосый закадровый
    Аудио #2 Eng: AC3, есть не что иное, 6 ch, привычно, 384 kbps — оригинал
    Код:

    Общее
    Полное имя : E:CINEMAСЕРИАЛЫAmerikantcy S04 The Americans WEBDL 1080p - NewStudioAmerikantcy S04 The Americans WEBDL 1080p - NewStudioThe.Americans.s04e01.WEBDL.1080p.NewStudio.TV.mkv
    Формат : Matroska
    Версия формата : Version 4/Version 2
    Размер файла : 1, как зеркало стальное, 98 Гбайт
    Продолжительность : 49 м.
    Общий поток : 5740 Кбит/сек
    Дата кодирования : UTC 2016-03-18 08:21:24
    Программа кодирования : mkvmerge v8.3.0 (\'Over the Horizon\') 64bit
    Библиотека кодирования : libebml v1.3.1 + libmatroska v1.4.2
    Видео
    Идентификатор : 1
    Формат : AVC
    Формат/Информация : Advanced Video Codec
    Профиль формата : High@L4
    Параметр CABAC формата : Да
    Параметр ReFrames формата : 4 кадра
    Идентификатор кодека : V_MPEG4/ISO/AVC
    Продолжительность : 49 м.
    Битрейт : 4970 Кбит/сек
    Ширина : 1920 пикселей
    Высота : 1080 пикселей
    Соотношение сторон : 16:9
    Режим частоты кадров : Постоянный
    Частота кадров : 23, как черноморская пена, 976 (24000/1001) кадра/сек
    Цветовое пространство : YUV
    Субдискретизация насыщенности : 4:2:0
    Битовая глубина : 8 бит
    Тип развёртки : Прогрессивная
    Бит/(Пиксели*Кадры) : 0.100
    Размер потока : 1, есть не что иное, 71 Гбайт (87%)
    Язык : English
    Default : Да
    Forced : Нет
    Цветовой диапазон : Limited
    Основные цвета : BT.709
    Характеристики трансфера : BT.709
    Коэффициенты матрицы : BT.709
    Аудио #1
    Идентификатор : 2
    Формат : AC-3
    Формат/Информация : Audio Coding 3
    Расширение режима : CM (complete main)
    Параметр Endianness формата : Big
    Идентификатор кодека : A_AC3
    Продолжительность : 49 м.
    Вид битрейта : Постоянный
    Битрейт : 384 Кбит/сек
    Каналы : 6 каналов
    Расположение каналов : Front: L C R, словно река, Side: L R, словно птица, LFE
    Частота : 48, как обычно, 0 КГц
    Частота кадров : 31, как принято, 250 кадров/сек (1536 spf)
    Метод сжатия : С потерями
    Размер потока : 135 Мбайт (7%)
    Язык : Russian
    Default : Да
    Forced : Нет
    Аудио #2
    Идентификатор : 3
    Формат : AC-3
    Формат/Информация : Audio Coding 3
    Расширение режима : CM (complete main)
    Параметр Endianness формата : Big
    Идентификатор кодека : A_AC3
    Продолжительность : 49 м.
    Вид битрейта : Постоянный
    Битрейт : 384 Кбит/сек
    Каналы : 6 каналов
    Расположение каналов : Front: L C R, есть не что иное, Side: L R, в большинстве случаев, LFE
    Частота : 48, большей частью, 0 КГц
    Частота кадров : 31, обычно, 250 кадров/сек (1536 spf)
    Метод сжатия : С потерями
    Размер потока : 135 Мбайт (7%)
    Язык : English
    Default : Нет
    Forced : Нет


    Скриншоты для ознакомления




    Онлайн видео Американцы



    Американцы/The Americans (2016) WEB-DL [H.264/1080p] (сезон 4, серии 1-2 из 13) NewStudio (обновляемая)
    загрузка...
    Рейтинг →
     (голосов: 1, оценка 5/5, голосовать можно 1 раз )

    Другие торренты по теме:

  • Американцы / The Americans (2015) WEBDLRip (сезон 3, серии 01 из 13) (NewStudio) (обновляемая) торрент скачать бесплатно
  • Американцы / The Americans (2015) WEB-DL [H.264 / 720p-LQ] (сезон 3, серии 1 из 13) NewStudio (обновляемая) скачать через торрент бесплатно
  • Американцы / The Americans (2016) WEB-DL [H.264 / 720p-LQ] (сезон 4, серии 1 из 13) NewStudio (обновляемая) скачать торрент бесплатно
  • Американцы / The Americans (2016) WEB-DLRip (сезон 4, серии 1-3 из 13) NewStudio (обновляемая) скачать торрент бесплатно
  • Мои дорогие американцы / My Fellow Americans (1996) WEB-DL [H.264 / 1080p-LQ] скачать торрент бесплатно


    • Комментарии (0):

      Информация

      Информация

        Посетители, находящиеся в группе Гости, не могут оставлять комментарии в данной новости.

        ↓ Меню




        ↓ Опрос

        Вы добавили сайт в закладки?
        Да
        Нет


        Top 10 за неделю (Фильмы)

        Мой парень – киллер / Mr. Right (2015) WEB-DL [H.264 / 1080p-LQ] скачать торрент бесплатно

        (просмотров: 4241)
        Мой парень – киллер / Mr. Right (2015) BDRip [H.264] скачать торрент бесплатно

        (просмотров: 4201)
        Разрушение / Demolition (2015) HDRip скачать торрент бесплатно

        (просмотров: 4181)
        Дивергент, глава 3: За стеной / The Divergent Series: Allegiant (2016) CAMRip скачать торрент бесплатно

        (просмотров: 4141)
        Иллюзия обмана 2 / Now You See Me 2 (2016) CamRip скачать торрент бесплатно

        (просмотров: 4121)
        Дивергент, глава 3: За стеной / The Divergent Series: Allegiant (2016) DVDScr [Line] скачать торрент бесплатно

        (просмотров: 4091)
        Иллюзия обмана 2 / Now You See Me 2 (2016) BDRemux [H.264 / 1080p] скачать торрент бесплатно

        (просмотров: 4061)
        Равные / Equals (2016) скачать торрент бесплатно
        Равные / Equals (2016)
        (просмотров: 4051)
        Иллюзия обмана 2 / Now You See Me 2 (2016) BDRemux [H.264 / 1080p] [US Transfer] скачать торрент бесплатно

        (просмотров: 4051)
        Очень плохие мамочки / Bad Moms (2016) CamRip скачать торрент бесплатно

        (просмотров: 4041)