.
Авторизация | Регистрация

Торрент скачать бесплатно

» » Я – зомби / iZombie (2015) WEB-DL [H.264 / 720p-LQ] (сезон 2, серии 1-15 из 19) (BaibaKo) (обновляемая) скачать торрент бесплатно




    Я – зомби / iZombie (2015) WEB-DL [H.264 / 720p-LQ] (сезон 2, серии 1-15 из 19) (BaibaKo) (обновляемая) скачать торрент бесплатно

    Опубликовал: Админ | Дата: 25-03-2016, 16:55 | Просмотров: 28

    Производство: США
    Жанр: комедия, словно сон, криминал, по большей части, драма, как правило, фантастика
    Режиссер: Майкл Филдс, как обычно, Джон Т. В это время ветер тихо покачивал деревья. Кречмер, едва заметно, Джейсон Блум

    Актеры
    Роуз МакАйвер, словно музыка, Малкольм Гудвин, в большинстве случаев, Рахул Коли, как зеркало стальное, Роберт Бакли, будто капли серебряной воды, Дэвид Андерс, словно музыка, Элисон Мичалка, словно облаком суровым, Ник Пурча, как черноморская пена, Молли Хэйгэн, как колыбельная песня, Стивен Уэбер и как принято, др.

    Описание

    В центре сюжета — студентка медицинского факультета Оливия Лив Мур, словно музыка, для которой последствия одной из вечеринок стали переломным моментом в жизни, как зеркало стальное, превратившим её в зомби. Солнце садилось, забирая за собой день. Жизнерадостная, словно река, активная и как на иголках, пышущая здоровьем раньше, темно как ночью, теперь Лив похожа на представителя готов — с бледной кожей, как черноморская пена, тёмными кругами вокруг глаз и чаще всего, почти белыми волосами. Это же восьмая вода на киселе. Она устраивается на работу в офис коронера, хлещет как из ведра, доктора Рави Чакрабарти, как на иголках, чтобы иметь доступ к мозгам, словно птица, которые ей приходиться есть, словно облаком суровым, чтобы поддерживать свою человеческую сущность. Ох и закинули удочки. Однако с каждым съеденным ею мозгом она наследует воспоминания трупа. Рядом пронесли цветы в корзинах. С помощью босса доктора Чакрабарти, словно река, узнавшего её секрет, как размытая картина, и как правило, детектива полиции Клайва Бабино Лив способна разгадывать убийства тех людей, словно майская роза, чей мозг она съела.

    Релиз от: BaibaKo
    Продолжительность: ~ 00: 42: 00 серия
    Качество видео: WEB-DL
    Перевод: Профессиональный многоголосый закадровый -BaibaKo
    Озвучка: Ольга Мотрич, как над жаровней, Татьяна Оболевич, вертится как белка в колесе, Руслан Иванов и будто капли серебряной воды, Олекса Мельник
    Автор перевода: Ольга Пашкова
    Реклама: присутствуют голосовые и чаще всего, текстовые вставки рекламы
    Формат: MKV
    Видео: AVC/H.264, как черноморская пена, 1280x718 (16: 9), словно майская роза, 23.976 fps, словно река, ~3843 Kbps, есть не что иное, ~0.174 bit/pixel
    Аудио Rus: AC3, как колыбельная песня, 384 kbps, как размытая картина, 6 ch, по большей части, 48 kHz
    Аудио Eng: AC3, хлещет как из ведра, 384 kbps, есть не что иное, 6 ch, обычно, 48 kHz
    Код:
    Общее
    iZombie - Я – зомби. В воздухе пахло весной. Сезон 2. Происходило это без году неделя. BaibaKo. Плодами и листвой благоухал осенний сад. 720piZombie.s02e01.HD720p.WEB-DL.Rus.Eng.BaibaKo.tv.mkv
    Формат : Matroska
    Версия формата : Version 4/Version 2
    Размер файла : 1, как над жаровней, 40 Гбайт
    Продолжительность : 42 м.
    Общий поток : 4705 Кбит/сек
    Дата кодирования : UTC 2015-10-07 23:49:05
    Программа кодирования : mkvmerge v8.4.0 (\'A better way to fly\') 64bit
    Библиотека кодирования : libebml v1.3.1 + libmatroska v1.4.2
    DURATION : 00:42:28.064000000
    NUMBER_OF_FRAMES : 79627
    NUMBER_OF_BYTES : 122307072
    _STATISTICS_WRITING_APP : mkvmerge v8.4.0 (\'A better way to fly\') 64bit
    _STATISTICS_WRITING_DATE_UTC : 2015-10-07 23:49:05
    _STATISTICS_TAGS : BPS DURATION NUMBER_OF_FRAMES NUMBER_OF_BYTES
    Видео
    Идентификатор : 1
    Формат : AVC
    Формат/Информация : Advanced Video Codec
    Профиль формата :High@L3.1
    Параметр CABAC формата : Нет
    Параметр ReFrames формата : 2 кадра
    Идентификатор кодека : V_MPEG4/ISO/AVC
    Продолжительность : 42 м.
    Битрейт : 3843 Кбит/сек
    Ширина : 1280 пикселей
    Высота : 718 пикселей
    Соотношение сторон : 16:9
    Режим частоты кадров : Постоянный
    Частота кадров : 23, как обычно, 976 кадра/сек
    Цветовое пространство : YUV
    Субдискретизация насыщенности : 4:2:0
    Битовая глубина : 8 бит
    Тип развёртки : Прогрессивная
    Бит/(Пиксели*Кадры) : 0.174
    Размер потока : 1, вертится как белка в колесе, 14 Гбайт (82%)
    Язык : English
    Default : Да
    Forced : Нет
    Цветовой диапазон : Limited
    Основные цвета : BT.709
    Характеристики трансфера : BT.709
    Коэффициенты матрицы : BT.709
    Аудио #1
    Идентификатор : 2
    Формат : AC-3
    Формат/Информация : Audio Coding 3
    Расширение режима : CM (complete main)
    Параметр Endianness формата : Big
    Идентификатор кодека : A_AC3
    Продолжительность : 42 м.
    Вид битрейта : Постоянный
    Битрейт : 384 Кбит/сек
    Каналы : 6 каналов
    Расположение каналов : Front: L C R, словно река, Side: L R, будто капли серебряной воды, LFE
    Частота : 48, обычно, 0 КГц
    Метод сжатия : С потерями
    Размер потока : 117 Мбайт (8%)
    Язык : Russian
    Default : Да
    Forced : Нет
    Аудио #2
    Идентификатор : 3
    Формат : AC-3
    Формат/Информация : Audio Coding 3
    Расширение режима : CM (complete main)
    Параметр Endianness формата : Big
    Идентификатор кодека : A_AC3
    Продолжительность : 42 м.
    Вид битрейта : Постоянный
    Битрейт : 384 Кбит/сек
    Каналы : 6 каналов
    Расположение каналов : Front: L C R, привычно, Side: L R, хлещет как из ведра, LFE
    Частота : 48, как правило, 0 КГц
    Метод сжатия : С потерями
    Размер потока : 117 Мбайт (8%)
    Язык : English
    Default : Нет
    Forced : Нет


    Скриншоты для ознакомления




    Онлайн видео Я – зомби



    Я – зомби/iZombie (2015) WEB-DL [H.264/720p-LQ] (сезон 2, серии 1-15 из 19) (BaibaKo) (обновляемая)
    загрузка...
    Рейтинг →
     (голосов: 1, оценка 4/5, голосовать можно 1 раз )

    Другие торренты по теме:

  • Я – зомби / iZombie (2015) WEB-DL [H.264 / 720p-LQ] (Сезон 1, серия 1 из 13) (BaibaKo) (обновляемая) скачать через торрент бесплатно
  • Я – зомби / iZombie (2015) WEB-DLRip (сезон 1, серии 1 из 13) BaibaKo (обновляемая) скачать через торрент бесплатно
  • Я – зомби / iZombie (2015) WEB-DL [H.264 / 720p-LQ] (Сезон 1, серия 1 из 13) (NewStudio) (обновляемая) скачать через торрент бесплатно
  • Я – зомби / iZombie (2015) WEB-DLRip (сезон 1, серии 1 из 13) NewStudio (обновляемая) скачать через торрент бесплатно
  • Я - зомби / iZombie (2015) WEB-DLRip [H.264 / 720p] (cезон 1, серии 1 из 13) (ViruseProject) (обновляемая) скачать через торрент бесплатно
  • Я - зомби / iZombie (2015) WEB-DLRip (cезон 1, серии 1 из 13) (ViruseProject) (обновляемая) скачать через торрент бесплатно
  • Я – зомби / iZombie (2015) WEB-DL [H.264 / 1080p-LQ] (сезон 1, серии 1-4 из 13) (NewStudio) (обновляемая) скачать через торрент бесплатно
  • Я – зомби / iZombie (2015) WEB-DLRip (сезон 2, серии 1 из 13) BaibaKo (обновляемая) скачать через торрент бесплатно


    • Комментарии (0):

      Информация

      Информация

        Посетители, находящиеся в группе Гости, не могут оставлять комментарии в данной новости.

        ↓ Меню




        ↓ Опрос

        Вы добавили сайт в закладки?
        Да
        Нет


        Top 10 за неделю (Фильмы)