.
Авторизация | Регистрация
Хочешь лучшие торренты? Добавь свой email!
Добавить

Торрент скачать бесплатно

» » Настоящий детектив / True Detective (2015) BDRip [H.264 / 720p] (сезон 2, серии 1-8 из 8) Novamedia торрент скачать бесплатно




    Настоящий детектив / True Detective (2015) BDRip [H.264 / 720p] (сезон 2, серии 1-8 из 8) Novamedia торрент скачать бесплатно

    Опубликовал: Админ | Дата: 25-03-2016, 16:55 | Просмотров: 28

    Производство: США, HBO
    Жанр: детектив, криминал, триллер, драма
    Режиссер: Джастин Лин, Дэниэл Эттиэс, Янус Мец Педерсен, Мигель Сапочник

    Актеры
    Колин Фаррелл, Рэйчел МакАдамс, Тейлор Китч, Винс Вон, У. Эрл Браун, Крис Керсон, К.С. Ли, Кристофер Джеймс Бэйкер, Майкл Ирби, Тимоти В. Самое интересное в это истории, что об этом Европарламент ничего не знал. Мерфи, Адриа Архона, Миранда Рэй Майо, Келли Райлли и др.

    Описание

    Мы живем в мире, который заслуживаем. О таком странном сюжете не догадывалась даже Ольга Полякова. В новом сезон любимого сериалае культового сериала зрителей ждут новое расследование и новые герои. Мрачное убийство, произошедшее в Калифорнии объединяет четырех персонажей в исполнении Колина Фаррелла, Рэйчел МакАдамс, Тейлора Китча и Винса Вона. Они объединяются, чтобы начать охоту на таинственного убийцу и разоблачить тех, чьи приказы он выполняет.

    Продолжительность: ~ 01: 00: 00 серия
    Качество видео: BDRip
    Перевод: Многоголосый закадровый профессиональный -Novamedia по заказу Amedia
    Видео: AVC/H.264, 1280x720 (16: 9), ~8000 kbps
    Аудио #1 Rus: AC3, 48, 0 kHz, 6 ch, 384 Kbps, CBR (Novamedia)
    Аудио #2 Eng: AC3, 48, 0 kHz, 6 ch, 448 Kbps, CBR (оригинал)
    Код:
    Общее
    Уникальный идентификатор : 199850296901678705241047416105274360378 (0x9659C461F5F30A4D991E18EFE946C23A)
    Полное имя : F:DOWNLOADSНастоящий детектив (2 сезон любимого сериала) 2015 BDRip 720Настоящий детектив 2 - 01 серия.mkv
    Формат : Matroska
    Версия формата : Version 2
    Размер файла : 3, 80 Гбайт
    Продолжительность : 1 ч. 0 м.
    Общий поток : 9027 Кбит/сек
    Дата кодирования : UTC 2016-03-23 08:14:40
    Программа кодирования : mkvmerge v7.8.0 (\'River Man\') 32bit built on Apr 3 2015 12:11:22
    Библиотека кодирования : libebml v1.3.1 + libmatroska v1.4.2
    Видео
    Идентификатор : 1
    Формат : AVC
    Формат/Информация : Advanced Video Codec
    Профиль формата :High@L4.1
    Параметр CABAC формата : Да
    Параметр ReFrames формата : 9 кадров
    Идентификатор кодека : V_MPEG4/ISO/AVC
    Продолжительность : 1 ч. 0 м.
    Битрейт : 8016 Кбит/сек
    Ширина : 1280 пикселей
    Высота : 720 пикселей
    Соотношение сторон : 16:9
    Режим частоты кадров : Постоянный
    Частота кадров : 23, 976 кадра/сек
    Цветовое пространство : YUV
    Субдискретизация насыщенности : 4:2:0
    Битовая глубина : 8 бит
    Тип развёртки : Прогрессивная
    Бит/(Пиксели*Кадры) : 0.363
    Размер потока : 3, 38 Гбайт (89%)
    Библиотека кодирования : x264 core 148 r2638+53 bb29004 t_mod_Custom [8-bit@all X86_64]
    Настройки программы : cabac=1/ref=9/deblock=1:-3:-3/analyse=0x3:0x133/me=umh/subme=11/psy=1/fade_compensate=0.00/psy_rd=1.10:0.00/mixed_ref=1/me_range=32/chroma_me=1/trellis=2/8x8dct=1/cqm=0/deadzone=21, 11/fast_pskip=0/chroma_qp_offset=-2/threads=12/lookahead_threads=3/sliced_threads=0/nr=0/decimate=0/interlaced=0/bluray_compat=0/constrained_intra=0/fgo=0/bframes=8/b_pyramid=2/b_adapt=2/b_bias=0/direct=3/weightb=1/open_gop=0/weightp=2/keyint=250/keyint_min=23/scenecut=40/intra_refresh=0/rc_lookahead=60/rc=crf/mbtree=0/crf=18.0000/qcomp=0.65/qpmin=0:0:0/qpmax=69:69:69/qpstep=4/vbv_maxrate=62500/vbv_bufsize=78125/crf_max=0.0/nal_hrd=none/filler=0/ip_ratio=1.20/pb_ratio=1.10/aq=3:0.65/aq-sensitivity=10.00/aq-factor=1.00:1.00:1.00/aq2=1:0.75/aq2-sensitivity=15.00/aq2-factor=1.00:1.00:1.00/aq3=0
    Default : Нет
    Forced : Нет
    Аудио #1
    Идентификатор : 2
    Формат : AC-3
    Формат/Информация : Audio Coding 3
    Расширение режима : CM (complete main)
    Параметр Endianness формата : Big
    Идентификатор кодека : A_AC3
    Продолжительность : 1 ч. 0 м.
    Вид битрейта : Постоянный
    Битрейт : 384 Кбит/сек
    Каналы : 6 каналов
    Расположение каналов : Front: L C R, Side: L R, LFE
    Частота : 48, 0 КГц
    Метод сжатия : С потерями
    Размер потока : 166 Мбайт (4%)
    Язык : Russian
    Default : Да
    Forced : Нет
    Аудио #2
    Идентификатор : 3
    Формат : AC-3
    Формат/Информация : Audio Coding 3
    Расширение режима : CM (complete main)
    Параметр Endianness формата : Big
    Идентификатор кодека : A_AC3
    Продолжительность : 1 ч. 0 м.
    Вид битрейта : Постоянный
    Битрейт : 448 Кбит/сек
    Каналы : 6 каналов
    Расположение каналов : Front: L C R, Side: L R, LFE
    Частота : 48, 0 КГц
    Метод сжатия : С потерями
    Размер потока : 193 Мбайт (5%)
    Язык : English
    Default : Нет
    Forced : Нет


    Скриншоты для ознакомления




    Онлайн видео Настоящий детектив



    Настоящий детектив/True Detective (2015) BDRip [H.264/720p] (сезон 2, серии 1-8 из 8) Novamedia
    загрузка...
    Рейтинг →
     (голосов: 1, оценка 5/5, голосовать можно 1 раз )

    Другие торренты по теме:

  • Настоящий детектив / True Detective (2014) BDRip [H.264] (сезон 1, серии 1-8 из 8) Amedia, Кубик в Кубе скачать через торрент бесплатно
  • Настоящий детектив / True Detective (2015) HDTVRip (сезон 2, серия 1 из 8) Новамедиа (обновляемая) скачать через торрент бесплатно
  • Настоящий детектив / True Detective (2015) HDTV [H.264 / 1080p-LQ] (сезон 2, серии 1 из 8) Новамедиа (обновляемая) скачать через торрент бесплатно
  • Настоящий детектив / True Detective (2015) HDTVRip (сезон 2, серии 1 из 8) BaibaKo (обновляемая) скачать через торрент бесплатно
  • Настоящий детектив / True Detective (2015) HDTV [H.264 / 720p-LQ] (сезон 2, серии 1 из 8) Кубик в Кубе (обновляемая) скачать через торрент бесплатно
  • Настоящий детектив / True Detective (2015) HDTVRip [H.264] (сезон 2, серия 1 из 8) Новамедиа (обновляемая) скачать через торрент бесплатно
  • Настоящий детектив / True Detective (2015) HDTV [H.264 / 1080p] (сезон 2, серии 1-2 из 8) Кубик в Кубе + Novamedia + BaibaKo (обновляемая) скачать через торрент бесплатно
  • Настоящий детектив / True Detective (2015) HDTVRip (сезон 2, серии 1-2 из 8) Кубик в Кубе + Novamedia + BaibaKo (обновляемая) скачать через торрент бесплатно


    • Комментарии (0):

      Информация

      Информация

        Посетители, находящиеся в группе Гости, не могут оставлять комментарии в данной новости.

        ↓ Меню




        ↓ Опрос

        Вы добавили сайт в закладки?
        Да
        Нет


        Top 10 за месяц (Фильмы)