.
Авторизация | Регистрация
Хочешь лучшие торренты? Добавь свой email!
Добавить

Торрент скачать бесплатно

» » Настоящий детектив / True Detective (2015) BDRemux [H.264 / 1080p] (сезон 2, серии 1-8 из 8) Novamedia торрент скачать бесплатно




    Настоящий детектив / True Detective (2015) BDRemux [H.264 / 1080p] (сезон 2, серии 1-8 из 8) Novamedia торрент скачать бесплатно

    Опубликовал: Админ | Дата: 25-03-2016, 16:55 | Просмотров: 32

    Производство: США, HBO
    Жанр: детектив, криминал, триллер, драма
    Режиссер: Джастин Лин, Дэниэл Эттиэс, Янус Мец Педерсен, Мигель Сапочник

    Актеры
    Колин Фаррелл, Рэйчел МакАдамс, Тейлор Китч, Винс Вон, У. Эрл Браун, Крис Керсон, К.С. Ли, Кристофер Джеймс Бэйкер, Майкл Ирби, Тимоти В. Время пошло, сказал кто то из толпы, к чему не понятно. Мерфи, Адриа Архона, Миранда Рэй Майо, Келли Райлли и др.

    Описание

    Мы живем в мире, который заслуживаем. В новом сезон любимого сериалае культового сериала зрителей ждут новое расследование и новые герои. Мрачное убийство, произошедшее в Калифорнии объединяет четырех персонажей в исполнении Колина Фаррелла, Рэйчел МакАдамс, Тейлора Китча и Винса Вона. Они объединяются, чтобы начать охоту на таинственного убийцу и разоблачить тех, чьи приказы он выполняет.

    Продолжительность: ~ 01: 00: 00 серия
    Качество видео: BDRemux
    Перевод: Многоголосый закадровый профессиональный -Novamedia по заказу Amedia
    Видео: AVC/H.264, 1920x1080 (16: 9), ~22, 0 Mbps
    Аудио #1 Rus: AC3, 48, 0 kHz, 6 ch, 384 Kbps, CBR (Novamedia)
    Аудио #2 Eng: AC3, 48, 0 kHz, 6 ch, 448 Kbps, CBR (оригинал)
    Код:
    Общее
    Уникальный идентификатор : 206307512368806520862693148139925965393 (0x9B3561AF60E0B6258F56457DCEBA8A51)
    Полное имя : F:DOWNLOADSНастоящий детектив (2 сезон любимого сериала) 2015 BDRemux 1080Настоящий детектив 2 - 01 серия.mkv
    Формат : Matroska
    Версия формата : Version 2
    Размер файла : 9, 58 Гбайт
    Продолжительность : 1 ч. 0 м.
    Режим общего битрейта : Переменный
    Общий поток : 22, 7 Мбит/сек
    Дата кодирования : UTC 2016-03-22 17:44:56
    Программа кодирования : mkvmerge v7.8.0 (\'River Man\') 32bit built on Apr 3 2015 12:11:22
    Библиотека кодирования : libebml v1.3.1 + libmatroska v1.4.2
    Видео
    Идентификатор : 1
    Формат : AVC
    Формат/Информация : Advanced Video Codec
    Профиль формата :High@L4.1
    Параметр CABAC формата : Да
    Параметр ReFrames формата : 4 кадра
    Идентификатор кодека : V_MPEG4/ISO/AVC
    Продолжительность : 1 ч. 0 м.
    Вид битрейта : Переменный
    Битрейт : 21, 5 Мбит/сек
    Максимальный битрейт : 36, 0 Мбит/сек
    Ширина : 1920 пикселей
    Высота : 1080 пикселей
    Соотношение сторон : 16:9
    Режим частоты кадров : Постоянный
    Частота кадров : 23, 976 кадра/сек
    Цветовое пространство : YUV
    Субдискретизация насыщенности : 4:2:0
    Битовая глубина : 8 бит
    Тип развёртки : Прогрессивная
    Бит/(Пиксели*Кадры) : 0.432
    Размер потока : 9, 04 Гбайт (94%)
    Default : Да
    Forced : Нет
    Аудио #1
    Идентификатор : 2
    Формат : AC-3
    Формат/Информация : Audio Coding 3
    Расширение режима : CM (complete main)
    Параметр Endianness формата : Big
    Идентификатор кодека : A_AC3
    Продолжительность : 1 ч. 0 м.
    Вид битрейта : Постоянный
    Битрейт : 384 Кбит/сек
    Каналы : 6 каналов
    Расположение каналов : Front: L C R, Side: L R, LFE
    Частота : 48, 0 КГц
    Метод сжатия : С потерями
    Размер потока : 166 Мбайт (2%)
    Язык : Russian
    Default : Да
    Forced : Нет
    Аудио #2
    Идентификатор : 3
    Формат : AC-3
    Формат/Информация : Audio Coding 3
    Расширение режима : CM (complete main)
    Параметр Endianness формата : Big
    Идентификатор кодека : A_AC3
    Продолжительность : 1 ч. 0 м.
    Вид битрейта : Постоянный
    Битрейт : 448 Кбит/сек
    Каналы : 6 каналов
    Расположение каналов : Front: L C R, Side: L R, LFE
    Частота : 48, 0 КГц
    Метод сжатия : С потерями
    Размер потока : 193 Мбайт (2%)
    Язык : English
    Default : Нет
    Forced : Нет


    Скриншоты для ознакомления




    Онлайн видео Настоящий детектив



    Настоящий детектив/True Detective (2015) BDRemux [H.264/1080p] (сезон 2, серии 1-8 из 8) Novamedia
    загрузка...
    Рейтинг →
     (голосов: 1, оценка 3/5, голосовать можно 1 раз )

    Другие торренты по теме:

  • Настоящий детектив / True Detective (2014) BDRip [H.264] (сезон 1, серии 1-8 из 8) Amedia, Кубик в Кубе скачать через торрент бесплатно
  • Настоящий детектив / True Detective (2015) HDTVRip (сезон 2, серия 1 из 8) Новамедиа (обновляемая) скачать через торрент бесплатно
  • Настоящий детектив / True Detective (2015) HDTV [H.264 / 1080p-LQ] (сезон 2, серии 1 из 8) Новамедиа (обновляемая) скачать через торрент бесплатно
  • Настоящий детектив / True Detective (2015) HDTVRip (сезон 2, серии 1 из 8) BaibaKo (обновляемая) скачать через торрент бесплатно
  • Настоящий детектив / True Detective (2015) HDTV [H.264 / 720p-LQ] (сезон 2, серии 1 из 8) Кубик в Кубе (обновляемая) скачать через торрент бесплатно
  • Настоящий детектив / True Detective (2015) HDTVRip [H.264] (сезон 2, серия 1 из 8) Новамедиа (обновляемая) скачать через торрент бесплатно
  • Настоящий детектив / True Detective (2015) HDTV [H.264 / 1080p] (сезон 2, серии 1-2 из 8) Кубик в Кубе + Novamedia + BaibaKo (обновляемая) скачать через торрент бесплатно
  • Настоящий детектив / True Detective (2015) HDTVRip (сезон 2, серии 1-2 из 8) Кубик в Кубе + Novamedia + BaibaKo (обновляемая) скачать через торрент бесплатно


    • Комментарии (0):

      Информация

      Информация

        Посетители, находящиеся в группе Гости, не могут оставлять комментарии в данной новости.

        ↓ Меню




        ↓ Опрос

        Вы добавили сайт в закладки?
        Да
        Нет


        Top 10 за месяц (Фильмы)