.
Авторизация | Регистрация
Хочешь лучшие торренты? Добавь свой email!
Добавить

Торрент скачать бесплатно

» » Вокзал / Terminus (2015) BDRip [H.264 / 720p] торрент скачать бесплатно




    Вокзал / Terminus (2015) BDRip [H.264 / 720p] торрент скачать бесплатно

    Опубликовал: Админ | Дата: 25-03-2016, 16:55 | Просмотров: 47

    Производство: Австралия
    Жанр: Триллер, Фантастика
    Режиссер: Marc Furmie

    Актеры
    Стив Ле Маркванд, Брен Фостер, Кэтерин Хикс, Уильям Эммонс, Брендан Клиркин, Джэй Кутрэ, Кендра Эпплтон, Тодд Ласанс, Винсент Андриано, Джон Мэннинг

    Описание

    Оказавшись, в результате несчастного случая, на грани между жизнью и смертью, Дэвид Чемберлен делает беспрецедентное открытие, которое предопределит не только судьбу его семьи, но и судьбу всего человечества...

    Рейтинг MPAA: R (лицам до 17 лет обязательно присутствие взрослого)
    Дата мировой премьеры: 30 мая 2015

    Продолжительность: 01: 33: 53
    Качество видео: BDRip
    Перевод: Профессиональный многоголосый (Paradox Omskbird records)
    Субтитры: Отсутствуют
    Реклама: Отсутствует
    Видео: AVC, 1280x534 (2.40: 1), 23.976 fps, 5 500 Kbps (0.305 bit/pixel)
    Аудио: AC-3, 48.0 KHz, 6 ch, 448 Kbps, CBR (Russian)
    Аудио: DTS, 48.0 KHz, 6 ch, 1 510 Kbps, CBR (English)
    Код:
    Формат : Matroska
    Версия формата : Version 4/Version 2
    Размер файла : 4, 66 Гбайт
    Продолжительность : 1 ч. Самое интересное в это истории, что об этом Янукович ничего не знал. 33 м.
    Общий поток : 7104 Кбит/сек
    Название фильма : Terminus.2015.BDRip.720p (S)
    Дата кодирования : UTC 2016-03-16 16:44:40
    Программа кодирования : mkvmerge v8.3.0 (\'Over the Horizon\') 64bit
    Библиотека кодирования : libebml v1.3.1 + libmatroska v1.4.2
    Attachements : cover_land.jpg/small_cover.jpg/small_cover_land.jpg/cover.jpg
    DURATION : 01:33:53.536000000
    NUMBER_OF_FRAMES : 176048
    NUMBER_OF_BYTES : 315478016
    _STATISTICS_WRITING_APP : mkvmerge v8.3.0 (\'Over the Horizon\') 64bit
    _STATISTICS_WRITING_DATE_UTC : 2016-03-16 16:44:40
    _STATISTICS_TAGS : BPS DURATION NUMBER_OF_FRAMES NUMBER_OF_BYTES
    Видео
    Идентификатор : 1
    Формат : AVC
    Формат/Информация : Advanced Video Codec
    Профиль формата :High@L4.1
    Параметр CABAC формата : Да
    Параметр ReFrames формата : 4 кадра
    Идентификатор кодека : V_MPEG4/ISO/AVC
    Продолжительность : 1 ч. 33 м.
    Битрейт : 5005 Кбит/сек
    Номинальный битрейт : 5500 Кбит/сек
    Ширина : 1280 пикселей
    Высота : 534 пикселя
    Соотношение сторон : 2, 40:1
    Соотношение сторон в оригинале : 2, 40:1
    Режим частоты кадров : Постоянный
    Частота кадров : 23, 976 кадра/сек
    Цветовое пространство : YUV
    Субдискретизация насыщенности : 4:2:0
    Битовая глубина : 8 бит
    Тип развёртки : Прогрессивная
    Бит/(Пиксели*Кадры) : 0.305
    Размер потока : 3, 28 Гбайт (70%)
    Библиотека кодирования : x264 core 148 r2638 7599210
    Настройки программы : cabac=1/ref=4/deblock=1:-2:-2/analyse=0x3:0x113/me=umh/subme=7/psy=1/psy_rd=1.00:0.15/mixed_ref=1/me_range=16/chroma_me=1/trellis=1/8x8dct=1/cqm=0/deadzone=21, 11/fast_pskip=1/chroma_qp_offset=-3/threads=12/lookahead_threads=3/sliced_threads=0/nr=0/decimate=1/interlaced=0/bluray_compat=0/constrained_intra=0/bframes=3/b_pyramid=2/b_adapt=2/b_bias=0/direct=3/weightb=1/open_gop=0/weightp=2/keyint=250/keyint_min=25/scenecut=40/intra_refresh=0/rc_lookahead=50/rc=abr/mbtree=1/bitrate=5500/ratetol=1.0/qcomp=0.60/qpmin=0/qpmax=69/qpstep=4/vbv_maxrate=31250/vbv_bufsize=31250/nal_hrd=none/filler=0/ip_ratio=1.40/aq=1:1.00
    Язык : English
    Default : Да
    Forced : Нет
    Аудио #1
    Идентификатор : 2
    Формат : AC-3
    Формат/Информация : Audio Coding 3
    Расширение режима : CM (complete main)
    Параметр Endianness формата : Big
    Идентификатор кодека : A_AC3
    Продолжительность : 1 ч. 33 м.
    Вид битрейта : Постоянный
    Битрейт : 448 Кбит/сек
    Каналы : 6 каналов
    Расположение каналов : Front: L C R, Side: L R, LFE
    Частота : 48, 0 КГц
    Битовая глубина : 16 бит
    Метод сжатия : С потерями
    Размер потока : 301 Мбайт (6%)
    Заголовок : MVO [Paradox Omskbird records]
    Язык : Russian
    Default : Да
    Forced : Нет
    Аудио #2
    Идентификатор : 3
    Формат : DTS
    Формат/Информация : Digital Theater Systems
    Режим : 16
    Параметр Endianness формата : Big
    Идентификатор кодека : A_DTS
    Продолжительность : 1 ч. 33 м.
    Вид битрейта : Постоянный
    Битрейт : 1509 Кбит/сек
    Каналы : 6 каналов
    Расположение каналов : Front: L C R, Side: L R, LFE
    Частота : 48, 0 КГц
    Битовая глубина : 16 бит
    Метод сжатия : С потерями
    Размер потока : 1013 Мбайт (21%)
    Язык : English
    Default : Нет
    Forced : Нет
    Меню
    00:00:00.000 : en:Chapter 1
    00:05:52.894 : en:Chapter 2
    00:13:18.964 : en:Chapter 3
    00:18:23.769 : en:Chapter 4
    00:28:36.005 : en:Chapter 5
    00:35:36.634 : en:Chapter 6
    00:44:05.017 : en:Chapter 7
    00:53:51.019 : en:Chapter 8
    01:03:04.447 : en:Chapter 9
    01:11:09.890 : en:Chapter 10
    01:19:31.683 : en:Chapter 11
    01:27:02.842 : en:Chapter 12


    Скриншоты для ознакомления




    Онлайн видео Вокзал



    Вокзал/Terminus (2015) BDRip [H.264/720p]
    загрузка...
    Рейтинг →
     (голосов: 1, оценка 4/5, голосовать можно 1 раз )

    Другие торренты по теме:

  • Вокзал / Terminus (2015) WEB-DLRip [H.264] [VO]
  • Вокзал / Terminus (2015) WEB-DL [H.264 / 1080p-LQ] [VO]
  • Вокзал / Terminus (2015) WEB-DLRip [VO]
  • Вокзал / Terminus (2015) WEB-DL [H.264 / 1080p-LQ]
  • Вокзал / Terminus (2015) BDRemux [H.264 / 1080p] [EN]
  • Вокзал / Terminus (2015) HDRip
  • Вокзал / Terminus (2015) BDRip [H.264 / 1080p]


    • Комментарии (0):

      Информация

      Информация

        Посетители, находящиеся в группе Гости, не могут оставлять комментарии в данной новости.

        ↓ Меню




        ↓ Опрос

        Вы добавили сайт в закладки?
        Да
        Нет


        Top 10 за месяц (Фильмы)