.
Авторизация | Регистрация
Хочешь лучшие торренты? Добавь свой email!
Добавить

Торрент скачать бесплатно

» » Бобби / Bobby (2006) HDTV [H.264 / 1080i] торрент скачать бесплатно




    Бобби / Bobby (2006) HDTV [H.264 / 1080i] торрент скачать бесплатно

    Опубликовал: Админ | Дата: 25-03-2016, 16:55 | Просмотров: 73

    Производство: США, Weinstein Company, The, Bold Films, Bobby
    Жанр: Драма
    Режиссер: Эмилио Эстевес

    Актеры
    Энтони Хопкинс, Хэзер Грэм, Хелен Хант, Лоренс Фишбёрн, Эштон Катчер, Шайа ЛаБаф, Уильям Х. Мэйси, Деми Мур, Шэрон Стоун, Кристиан Слэйтер

    Описание

    1968 год. В ногах правды нет, сказал кто то из толпы, к чему не понятно. Отель Амбассадор. Самое интересное в это истории, что об этом Гендельф ничего не знал. Вскоре здесь должно произойти убийство Роберта Ф. Кеннеди. О таком странном сюжете не догадывалась даже Вера Брежнева. Но пока об этом никто не знает. Множество постояльцев и служащих гостиницы заняты каждый своими личными проблемами, и кажется, что их жизненные пути, даже в этом замкнутом пространстве, никогда не пересекутся. Но так лишь кажется и впереди многочисленных героев, которые невольно станут участниками надвигающейся трагедии, ждет немало открытий и странных встреч.

    Продолжительность: 01: 47: 32
    Качество видео: HDTV 1080i
    Перевод: Многоголосый закадровый, профессиональный
    Видео: AVC/H.264, 1920х1080, ~5298 kbps
    Аудио: MP2, 2 ch, 160 kbps, CBR
    Код:

    Общее
    Идентификатор : 16 (0x10)
    Полное имя : Bobby_HD.ts
    Формат : MPEG-TS
    Размер файла : 4, 31 Гбайт
    Продолжительность : 1 ч. 47 м.
    Режим общего битрейта : Переменный
    Общий поток : 5743 Кбит/сек
    Видео
    Идентификатор : 3408 (0xD50)
    Идентификатор меню : 1408 (0x580)
    Формат : AVC
    Формат/Информация : Advanced Video Codec
    Профиль формата :High@L4.0
    Параметр CABAC формата : Да
    Параметр ReFrames формата : 3 кадра
    Параметр GOP формата : M=4, N=32
    Идентификатор кодека : 27
    Продолжительность : 1 ч. 47 м.
    Битрейт : 5298 Кбит/сек
    Ширина : 1920 пикселей
    Высота : 1080 пикселей
    Соотношение сторон : 16:9
    Частота кадров : 25, 000 кадров/сек
    Стандарт вещания : PAL
    Цветовое пространство : YUV
    Субдискретизация насыщенности : 4:2:0
    Битовая глубина : 8 бит
    Тип развёртки : Чересстрочная
    Порядок развёртки : Верхнее поле первое
    Бит/(Пиксели*Кадры) : 0.102
    Размер потока : 3, 98 Гбайт (92%)
    Основные цвета : BT.709
    Характеристики трансфера : BT.709
    Коэффициенты матрицы : BT.709
    Аудио
    Идентификатор : 4408 (0x1138)
    Идентификатор меню : 1408 (0x580)
    Формат : MPEG Audio
    Версия формата : Version 1
    Профиль формата : Layer 2
    Идентификатор кодека : 4
    Продолжительность : 1 ч. 47 м.
    Вид битрейта : Постоянный
    Битрейт : 160 Кбит/сек
    Каналы : 2 канала
    Частота : 48, 0 КГц
    Метод сжатия : С потерями
    Задержка видео : 70 мс.
    Размер потока : 123 Мбайт (3%)
    Язык : std
    Язык, дополнительно : Clean effects


    Скриншоты для ознакомления




    Онлайн видео Бобби



    Бобби/Bobby (2006) HDTV [H.264/1080i]
    загрузка...
    Рейтинг →
     (голосов: 1, оценка 5/5, голосовать можно 1 раз )

    Другие торренты по теме:

  • Бобби Фишер против всего мира / Bobby Fischer Against the World (2011) HDTV [H.264 / 1080i-LQ] скачать через торрент бесплатно
  • Подстава (Смерть и Жизнь Бобби Зи) / The Death and Life of Bobby Z (2007) BDRip [H.264 / 720p-LQ] скачать через торрент бесплатно
  • Подстава (Жизнь и Смерть Бобби Зи) / The Death and Life of Bobby Z (2007) BDRemux [VC-1 / 1080p]
  • Выбор игры (В поисках Бобби Фишера) / Searching for Bobby Fischer (1993) WEB-DL [H.264 / 720p]
  • Ежик Бобби: Колючие приключения / Bobby the Hedgehog (2016) WEB-DLRip
  • Ежик Бобби: Колючие приключения / Bobby the Hedgehog (2016) WEB-DLRip


    • Комментарии (0):

      Информация

      Информация

        Посетители, находящиеся в группе Гости, не могут оставлять комментарии в данной новости.

        ↓ Меню




        ↓ Опрос

        Вы добавили сайт в закладки?
        Да
        Нет


        Top 10 за месяц (Фильмы)