.
Авторизация | Регистрация
Хочешь лучшие торренты? Добавь свой email!
Добавить

Торрент скачать бесплатно

» » Жертвоприношение / Offret (1986) BDRip [H.264 / 1080p] торрент скачать бесплатно




    Жертвоприношение / Offret (1986) BDRip [H.264 / 1080p] торрент скачать бесплатно

    Опубликовал: Админ | Дата: 25-03-2016, 16:55 | Просмотров: 37

    Производство: Швеция, Франция, Великобритания
    Жанр: Драма
    Режиссер: Андрей Тарковский

    Актеры
    Эрланд Юсефсон, Сьюзен Флитвуд, Томми Кьеллквист, Аллан Эдвалль, Гудрун Гисладоттир, Свен Воллтер, Валери Мересс, Филиппа Францен

    Описание

    Чем надо пожертвовать, чтобы спасти мир от надвигающейся катастрофы? Своим имуществом, своим образом жизни, а, может быть, своей жизнью? Что положит герой фильма на алтарь Всемогущего Творца, если последний, конечно, существует?!

    Продолжительность: 02: 28: 54
    Качество видео: BDRip
    Перевод: Двуголосый закадровый профессиональный; многоголосый закадровый профессиональный; авторский одноголосый закадровый
    Язык субтитров: Русский, Английский
    Вид субтитров: Вшитые отключаемые
    Видео: AVC/H.264, 1792х1080, ~10.8 Mbps, 23.976 fps
    Аудио 1: AC3, 2 ch, 192.00 kbps, 48 KHz, CBR - Русский, двуголосый
    Аудио 2: AC3, 2 ch, 192.00 kbps, 48 KHz, CBR - Русский, многоголосый
    Аудио 3: AC3, 1 ch, 192.00 kbps, 48 KHz, CBR - Русский, авторский (Панков)
    Аудио 4: AC3, 2 ch, 448.00 kbps, 48 KHz, CBR - Шведский, оригинал
    Код:

    General
    Unique ID : 171036862188732741315660174886713884436 (0x80AC805EEAF7BA07AA4B826A6562FF14)
    Complete name : G:Download_GЖертвоприношение.(Тарковский, 1986).1080.BDRip.mkv
    Format : Matroska
    Format version : Version 2
    File size : 12.3 GiB
    Duration : 2h 28mn
    Overall bit rate mode : Variable
    Overall bit rate : 11.8 Mbps
    Movie name : Жертвоприношение.Тарковский.1986 Rip by D\'iamond
    Encoded date : UTC 2012-07-22 07:01:58
    Writing application : mkvmerge v3.4.0 (\'Rapunzel\') сборка от May 15 2010 09:38:20
    Writing library : libebml v0.8.0 + libmatroska v0.9.0
    Video
    ID : 1
    Format : AVC
    Format/Info : Advanced Video Codec
    Format profile :High@L4.1
    Format settings, CABAC : Yes
    Format settings, ReFrames : 3 frames
    Codec ID : V_MPEG4/ISO/AVC
    Duration : 2h 28mn
    Bit rate mode : Variable
    Bit rate : 10.8 Mbps
    Maximum bit rate : 40.0 Mbps
    Width : 1 792 pixels
    Height : 1 080 pixels
    Display aspect ratio : 5:3
    Frame rate mode : Constant
    Frame rate : 23.976 fps
    Color space : YUV
    Chroma subsampling : 4:2:0
    Bit depth : 8 bits
    Scan type : Progressive
    Bits/(Pixel*Frame) : 0.233
    Stream size : 11.0 GiB (89%)
    Writing library : x264 core 115 r1995 c1e60b9
    Encoding settings : cabac=1/ref=4/deblock=1:0:0/analyse=0x3:0x113/me=hex/subme=7/psy=1/psy_rd=1.00:0.00/mixed_ref=1/me_range=16/chroma_me=1/trellis=1/8x8dct=1/cqm=0/deadzone=21, 11/fast_pskip=1/chroma_qp_offset=-2/threads=6/sliced_threads=0/slices=4/nr=0/decimate=1/interlaced=0/bluray_compat=1/constrained_intra=0/bframes=3/b_pyramid=1/b_adapt=1/b_bias=0/direct=1/weightb=1/open_gop=1/weightp=0/keyint=24/keyint_min=2/scenecut=40/intra_refresh=0/rc_lookahead=24/rc=2pass/mbtree=1/bitrate=10800/ratetol=1.0/qcomp=0.60/qpmin=0/qpmax=69/qpstep=4/cplxblur=20.0/qblur=0.5/vbv_maxrate=40000/vbv_bufsize=30000/nal_hrd=vbr/ip_ratio=1.40/aq=1:1.00
    Language : English
    Default : No
    Forced : No
    Color range : Limited
    Color primaries : BT.709
    Transfer characteristics : BT.709
    Matrix coefficients : BT.709
    Audio #1
    ID : 2
    Format : AC-3
    Format/Info : Audio Coding 3
    Mode extension : CM (complete main)
    Format settings, Endianness : Big
    Codec ID : A_AC3
    Duration : 2h 28mn
    Bit rate mode : Constant
    Bit rate : 192 Kbps
    Channel(s) : 2 channels
    Channel positions : Front: L R
    Sampling rate : 48.0 KHz
    Compression mode : Lossy
    Stream size : 204 MiB (2%)
    Title : AC3 2.0 DVO
    Language : Russian
    Default : Yes
    Forced : No
    Audio #2
    ID : 3
    Format : AC-3
    Format/Info : Audio Coding 3
    Mode extension : CM (complete main)
    Format settings, Endianness : Big
    Codec ID : A_AC3
    Duration : 2h 28mn
    Bit rate mode : Constant
    Bit rate : 192 Kbps
    Channel(s) : 2 channels
    Channel positions : Front: L R
    Sampling rate : 48.0 KHz
    Compression mode : Lossy
    Stream size : 204 MiB (2%)
    Title : AC3 2.0 MV0-Видеоимпульс
    Language : Russian
    Default : No
    Forced : No
    Audio #3
    ID : 4
    Format : AC-3
    Format/Info : Audio Coding 3
    Mode extension : CM (complete main)
    Format settings, Endianness : Big
    Codec ID : A_AC3
    Duration : 2h 28mn
    Bit rate mode : Constant
    Bit rate : 192 Kbps
    Channel(s) : 1 channel
    Channel positions : Front: C
    Sampling rate : 48.0 KHz
    Compression mode : Lossy
    Stream size : 204 MiB (2%)
    Title : AC3 1.0 Front:C VO- Р.Панков
    Language : Russian
    Default : No
    Forced : No
    Audio #4
    ID : 5
    Format : AC-3
    Format/Info : Audio Coding 3
    Mode extension : CM (complete main)
    Format settings, Endianness : Big
    Codec ID : A_AC3
    Duration : 2h 28mn
    Bit rate mode : Constant
    Bit rate : 448 Kbps
    Channel(s) : 2 channels
    Channel positions : Front: L R
    Sampling rate : 48.0 KHz
    Compression mode : Lossy
    Stream size : 477 MiB (4%)
    Title : AC3 2.0 Оригинал
    Language : Swedish
    Default : No
    Forced : No
    Text #1
    ID : 6
    Format : UTF-8
    Codec ID : S_TEXT/UTF8
    Codec ID/Info : UTF-8 Plain Text
    Language : Russian
    Default : No
    Forced : No
    Text #2
    ID : 7
    Format : UTF-8
    Codec ID : S_TEXT/UTF8
    Codec ID/Info : UTF-8 Plain Text
    Language : English
    Default : No
    Forced : No
    Menu
    00:00:00.000 : en:00:00:00.000
    00:04:37.903 : en:00:04:37.903
    00:14:51.099 : en:00:14:51.099
    00:25:44.084 : en:00:25:44.084
    00:30:39.379 : en:00:30:39.379
    00:35:26.333 : en:00:35:26.333
    00:40:25.131 : en:00:40:25.131
    00:44:36.382 : en:00:44:36.382
    00:47:49.909 : en:00:47:49.909
    00:51:19.118 : en:00:51:19.118
    00:56:27.676 : en:00:56:27.676
    01:04:03.298 : en:01:04:03.298
    01:08:05.373 : en:01:08:05.373
    01:14:43.646 : en:01:14:43.646
    01:20:18.689 : en:01:20:18.689
    01:29:58.852 : en:01:29:58.852
    01:32:18.700 : en:01:32:18.700
    01:34:13.606 : en:01:34:13.606
    01:39:12.613 : en:01:39:12.613
    01:43:40.339 : en:01:43:40.339
    01:48:40.339 : en:01:48:40.339


    Скриншоты для ознакомления




    Онлайн видео Жертвоприношение



    Жертвоприношение/Offret (1986) BDRip [H.264/1080p]
    загрузка...
    Рейтинг →
     (голосов: 1, оценка 5/5, голосовать можно 1 раз )

    Другие торренты по теме:

  • Sacrifice / Жертвоприношение (2000) [En] (patch3) Repack Bl00dRedDragon скачать через торрент бесплатно
  • Жертвоприношение (2015) HDTV [H.264 / 1080i] скачать через торрент бесплатно
  • Sacrifice / Жертвоприношение (2000) [Ru / En] (15.08.2016) License GOG
  • Грэм Мастертон | Жертвоприношение (2017) [FB2]


    • Комментарии (0):

      Информация

      Информация

        Посетители, находящиеся в группе Гости, не могут оставлять комментарии в данной новости.

        ↓ Меню




        ↓ Опрос

        Вы добавили сайт в закладки?
        Да
        Нет


        Top 10 за месяц (Фильмы)