.
Авторизация | Регистрация
Хочешь лучшие торренты? Добавь свой email!
Добавить

Торрент скачать бесплатно

» » 1984 / Nineteen Eighty-Four (1984) WEB-DL [H.264 / 720р-LQ] торрент скачать бесплатно




    1984 / Nineteen Eighty-Four (1984) WEB-DL [H.264 / 720р-LQ] торрент скачать бесплатно

    Опубликовал: Админ | Дата: 25-03-2016, 16:55 | Просмотров: 29

    Производство: Великобритания
    Жанр: Фантастика, Триллер, Драма, Мелодрама
    Режиссер: Майкл Редфорд

    Актеры
    Джон Хёрт, Ричард Бертон, Сюзанна Хэмилтон, Сирил Кьюсак

    Описание

    Для подавления массовых волнений Океании правящая партия заново воссоздает прошлое и настоящее. За каждым гражданином неусыпно наблюдают, каждому с помощью телевидения промывают мозги. И даже двое любовников вынуждены скрывать свои чувства, поскольку секс и межличностные отношения объявлены вне закона.

    Продолжительность: 01: 50: 31
    Качество видео: WEB-DL
    Перевод: Двуголосый закадровый, профессиональный; многоголосый закадровый, профессиональный; одноголосый закадровый, профессиональный
    Язык субтитров: Русский, Английский
    Вид субтитров: Вшитые отключаемые
    Видео: AVC/H.264, 1280x692 (1.85: 1), ~3918 kbps, 23.976 fps
    Аудио 1: AC3, 2 ch, 192.00 kbps, 48 KHz, CBR - Русский, двуголосый
    Аудио 2: AC3, 1 ch, 128.00 kbps, 48 KHz, CBR - Русский, многоголосый
    Аудио 3: AC3, 2 ch, 192.00 kbps, 48 KHz, CBR - Русский, одноголосый
    Аудио 4: AAC, 2 ch, 150.00 kbps, 48 KHz, VBR - Английский, оригинал
    Код:

    General
    Unique ID : 170331206576675484664264832836091553855 (0x802498DCEB5EB934BF89F4C9C4F8A83F)
    Complete name : G:Download_GNineteen_Eighty_Four_1984_720p_WEB_DL.mkv
    Format : Matroska
    Format version : Version 2
    File size : 3.54 GiB
    Duration : 1h 50mn
    Overall bit rate : 4 571 Kbps
    Encoded date : UTC 2013-01-07 14:43:43
    Writing application : mkvmerge v5.0.1 (\'Es ist Sommer\') built on Oct 9 2011 11:55:43
    Writing library : libebml v1.2.2 + libmatroska v1.3.0
    Video
    ID : 1
    Format : AVC
    Format/Info : Advanced Video Codec
    Format profile :High@L3.1
    Format settings, CABAC : No
    Format settings, ReFrames : 2 frames
    Codec ID : V_MPEG4/ISO/AVC
    Duration : 1h 50mn
    Width : 1 280 pixels
    Height : 692 pixels
    Display aspect ratio : 1.85:1
    Frame rate mode : Constant
    Frame rate : 23.976 fps
    Color space : YUV
    Chroma subsampling : 4:2:0
    Bit depth : 8 bits
    Scan type : Progressive
    Language : English
    Default : Yes
    Forced : No
    Color range : Limited
    Color primaries : BT.709
    Transfer characteristics : BT.709
    Matrix coefficients : BT.709
    Audio #1
    ID : 2
    Format : AC-3
    Format/Info : Audio Coding 3
    Mode extension : CM (complete main)
    Format settings, Endianness : Big
    Codec ID : A_AC3
    Duration : 1h 50mn
    Bit rate mode : Constant
    Bit rate : 192 Kbps
    Channel(s) : 2 channels
    Channel positions : Front: L R
    Sampling rate : 48.0 KHz
    Compression mode : Lossy
    Stream size : 152 MiB (4%)
    Title : DVO НТВ+
    Language : Russian
    Default : Yes
    Forced : No
    Audio #2
    ID : 3
    Format : AC-3
    Format/Info : Audio Coding 3
    Mode extension : CM (complete main)
    Format settings, Endianness : Big
    Codec ID : A_AC3
    Duration : 1h 50mn
    Bit rate mode : Constant
    Bit rate : 128 Kbps
    Channel(s) : 1 channel
    Channel positions : Front: C
    Sampling rate : 48.0 KHz
    Compression mode : Lossy
    Stream size : 101 MiB (3%)
    Title : MVO
    Language : Russian
    Default : No
    Forced : No
    Audio #3
    ID : 4
    Format : AC-3
    Format/Info : Audio Coding 3
    Mode extension : CM (complete main)
    Format settings, Endianness : Big
    Codec ID : A_AC3
    Duration : 1h 50mn
    Bit rate mode : Constant
    Bit rate : 192 Kbps
    Channel(s) : 2 channels
    Channel positions : Front: L R
    Sampling rate : 48.0 KHz
    Compression mode : Lossy
    Stream size : 152 MiB (4%)
    Title : VO
    Language : Russian
    Default : No
    Forced : No
    Audio #4
    ID : 5
    Format : AAC
    Format/Info : Advanced Audio Codec
    Format profile : LC
    Codec ID : A_AAC
    Duration : 1h 50mn
    Channel(s) : 2 channels
    Channel positions : Front: L R
    Sampling rate : 48.0 KHz
    Compression mode : Lossy
    Title : AAC 2.0
    Language : English
    Default : No
    Forced : No
    Text #1
    ID : 6
    Format : UTF-8
    Codec ID : S_TEXT/UTF8
    Codec ID/Info : UTF-8 Plain Text
    Language : Russian
    Default : No
    Forced : No
    Text #2
    ID : 7
    Format : UTF-8
    Codec ID : S_TEXT/UTF8
    Codec ID/Info : UTF-8 Plain Text
    Language : English
    Default : No
    Forced : No
    Menu
    00:00:00.000 : en:Chapter 1
    00:06:23.000 : en:Chapter 2
    00:11:30.000 : en:Chapter 3
    00:18:39.000 : en:Chapter 4
    00:23:47.000 : en:Chapter 5
    00:30:14.000 : en:Chapter 6
    00:35:59.000 : en:Chapter 7
    00:41:41.000 : en:Chapter 8
    00:47:32.000 : en:Chapter 9
    00:55:37.000 : en:Chapter 10
    01:01:13.000 : en:Chapter 11
    01:05:54.000 : en:Chapter 12
    01:15:05.000 : en:Chapter 13
    01:29:47.000 : en:Chapter 14
    01:40:44.000 : en:Chapter 15
    01:47:00.000 : en:Chapter 16
    File: G: Download_GNineteen_Eighty_Four_1984_720p_WEB_DL.mkv
    Duration: 01: 50: 48 (6647.52) - WARNING: Differs from video duration! (16.76 sec)
    Track #1: video
    lang: Unknown (1)
    codc: V_MPEG4/ISO/AVC - H264/AVC (22)
    reso: 1280x692 - Unknown (aka not common)
    fram: 23.976000 fps
    rate: 3918 kbps (3917.797119)
    dura: 01: 50: 31 (6630.755859)
    size: 3.02 GB (3247244735)
    Track #2: audio (DVO ￐ン￐ᄁ￐メ+)
    lang: rus - Russian (15)
    codc: A_AC3 - AC3 (2)
    chan: 2 - Stereo
    samp: 48000 Hz
    rate: 192 kbps (192.03)
    dura: 01: 50: 29 (6628.58)
    size: 151.74 MB (159114284)
    Track #3: audio (MVO)
    lang: rus - Russian (15)
    codc: A_AC3 - AC3 (2)
    chan: 1 - Mono
    samp: 48000 Hz
    rate: 128 kbps (128.04)
    dura: 01: 50: 31 (6630.59)
    size: 101.20 MB (106118947)
    Track #4: audio (VO)
    lang: rus - Russian (15)
    codc: A_AC3 - AC3 (2)
    chan: 2 - Stereo
    samp: 48000 Hz
    rate: 192 kbps (192.03)
    dura: 01: 50: 47 (6647.46)
    size: 152.18 MB (159567486)
    Track #5: audio (AAC 2.0)
    lang: Unknown (1)
    codc: A_AAC - AAC (9)
    chan: 2 - Stereo
    samp: 48000 Hz
    rate: 150 kbps (149.76)
    dura: 01: 50: 31 (6630.68)
    size: 118.38 MB (124127390)
    Track #6: subtitles
    lang: rus - Russian (15)
    type: S_TEXT/UTF8 - SRT (3)
    size: 60.75 KB (62206)
    Track #7: subtitles
    lang: Unknown (1)
    type: S_TEXT/UTF8 - SRT (3)
    size: 35.01 KB (35847)
    Sizes: (check sanity)
    disk: 3.54 GB (3798449308)
    trac: 3.54 GB (3796270895) based on track size
    bitr: 3.54 GB (3795828075) based on bitrate
    tdif: 2.08 MB (2178413) 0.05%
    bdif: 2.50 MB (2621232) 0.06%


    Скриншоты для ознакомления




    1984/Nineteen Eighty-Four (1984) WEB-DL [H.264/720р-LQ]
    загрузка...
    Рейтинг →
     (голосов: 1, оценка 5/5, голосовать можно 1 раз )

    Другие торренты по теме:

  • SpellBlast - Nineteen (2014) [MP3|320 кб / с] <Rock, Power Metal>


    • Комментарии (0):

      Информация

      Информация

        Посетители, находящиеся в группе Гости, не могут оставлять комментарии в данной новости.

        ↓ Меню




        ↓ Опрос

        Вы добавили сайт в закладки?
        Да
        Нет


        Top 10 за месяц (Фильмы)