.
Авторизация | Регистрация
Хочешь лучшие торренты? Добавь свой email!
Добавить

Торрент скачать бесплатно

» » Полицейский с Рублёвки (2016) SATRip (серии 1 из 8) (обновляемая) торрент скачать бесплатно




    Полицейский с Рублёвки (2016) SATRip (серии 1 из 8) (обновляемая) торрент скачать бесплатно

    Опубликовал: Админ | Дата: 22-03-2016, 04:01 | Просмотров: 120

    Производство: Россия/АВ Контент по заказу тнт
    Жанр: драма, комедия
    Режиссер: Илья Куликов

    Актеры
    Александр Петров, Александра Бортич, Сергей Бурунов, Татьяна Бабенкова, Софья Каштанова, Роман Попов, Ростислав Гулбис, Анастасия Стежко, Лилия Лаврова, Виктория Тарасова, Анна Котова, Сергей Калашников, Сергей Штатнов, Владимир Рузанов

    Описание

    Полицейский с Рублёвки — это история о Грише Измайлове, полицейском, который призван охранять покой и порядок в самом элитном районе России, где живут невероятно богатые люди. Ему приходится расследовать дела, в которые впутываются жители Рублевки, и делает он это нередко превышая свои полномочия. Грише около 30 лет, он красив, одинок, богат, циничен, азартен и ко всему относится с изрядной долей черного юмора. Он заботится о младшей сестре-хулиганке, которую вынужден постоянно вытаскивать из неприятностей. Гриша не прикладывая усилий умеет нравиться женщинам и регулярно издевается над своим начальником Яковлевым.

    Возраст: 16+ (зрителям, достигшим 16 лет)
    Продолжительность: ~ 00: 50: 00 серия
    Качество видео: SATRip
    Видео: XviD, 720x400 (16: 9), ~1534 kb/s
    Аудио: MPEG Layer 3, 48 kHz, 2 ch, 192 kbps
    Код:
    Общее
    Полное имя : D:РелизыПолицейский с Рублёвки (2016) SATRip1.серия.avi
    Формат : AVI
    Формат/Информация : Audio Video Interleave
    Размер файла : 622 Мбайт
    Продолжительность : 50 м.
    Общий поток : 1736 Кбит/сек
    Программа кодирования : VirtualDubMod 1.5.10.3 (build 2550/release)
    Библиотека кодирования : VirtualDubMod build 2550/release
    Видео
    Идентификатор : 0
    Формат : MPEG-4 Visual
    Профиль формата : Advanced Simple@L5
    Параметр BVOP формата : 1
    Параметр QPel формата : Нет
    Параметр GMC формата : Без точки перехода
    Параметр матрицы формата : Default (H.263)
    Идентификатор кодека : XVID
    Идентификатор кодека/Подсказка : XviD
    Продолжительность : 50 м.
    Битрейт : 1534 Кбит/сек
    Ширина : 720 пикселей
    Высота : 400 пикселей
    Соотношение сторон : 16:9
    Частота кадров : 25, 000 кадров/сек
    Цветовое пространство : YUV
    Субдискретизация насыщенности : 4:2:0
    Битовая глубина : 8 бит
    Тип развёртки : Прогрессивная
    Метод сжатия : С потерями
    Бит/(Пиксели*Кадры) : 0.213
    Размер потока : 549 Мбайт (88%)
    Библиотека кодирования : XviD 67
    Аудио
    Идентификатор : 1
    Формат : MPEG Audio
    Версия формата : Version 1
    Профиль формата : Layer 3
    Режим : Joint stereo
    Идентификатор кодека : 55
    Идентификатор кодека/Подсказка : MP3
    Продолжительность : 50 м.
    Вид битрейта : Постоянный
    Битрейт : 192 Кбит/сек
    Каналы : 2 канала
    Частота : 48, 0 КГц
    Метод сжатия : С потерями
    Размер потока : 68, 7 Мбайт (11%)
    Выравнивание : Разделение по промежуткам
    Продолжительность промежутка : 40 мс. (1, 00 видеокадр)
    Время предзагрузки промежутка : 500 мс.
    Библиотека кодирования : LAME3.99C0Мq[юТЮрV


    Скриншоты для ознакомления




    Онлайн видео База Куантико



    Полицейский с Рублёвки (2016) SATRip (серии 1 из 8) (обновляемая)
    загрузка...
    Рейтинг →
     (голосов: 1, оценка 4/5, голосовать можно 1 раз )

    Другие торренты по теме:

  • Полицейский с Рублёвки (2016) DVB [H.264] (серии 1-4 из 8) (обновляемая)
  • Полицейский с Рублёвки (2016) DVB (серии 1-8 из 8)
  • Полицейский с Рублёвки (2016) WEB-DL [H.264 / 720p-LQ] (Серии 1-8 из 8)
  • Полицейский с Рублёвки в Бескудниково (2017) SATRip [H.264] (сезон 2, серии 1 из 8 ) (обновляемая)
  • Полицейский с Рублёвки в Бескудниково (2017) SATRip (сезон 2, серии 1 из 8) (обновляемая)
  • Полицейский с Рублёвки в Бескудниково (2017) HDTVRip (сезон 1, серии 1 из 8) (обновляемая)
  • Полицейский с Рублёвки в Бескудниково (2017) HDTVRip [H.264 / 720p-LQ] (сезон 2, серии 1 из 8) (обновляемая)
  • Полицейский с Рублёвки в Бескудниково (2017) HDTV [H.264 / 1080i-LQ] (сезон 2, серии 1 из 8) (обновляемая)


    • Комментарии (0):

      Информация

      Информация

        Посетители, находящиеся в группе Гости, не могут оставлять комментарии в данной новости.

        ↓ Меню




        ↓ Опрос

        Вы добавили сайт в закладки?
        Да
        Нет


        Top 10 за месяц (Фильмы)