.
Авторизация | Регистрация
Хочешь лучшие торренты? Добавь свой email!
Добавить

Торрент скачать бесплатно

» » Области тьмы / Limitless (2015) WEB-DL [H.264 / 1080p-LQ] (сезон 1, серии 1-18 из 22) NewStudio (обновляемая) торрент скачать бесплатно




    Области тьмы / Limitless (2015) WEB-DL [H.264 / 1080p-LQ] (сезон 1, серии 1-18 из 22) NewStudio (обновляемая) торрент скачать бесплатно

    Опубликовал: Админ | Дата: 22-03-2016, 04:01 | Просмотров: 127

    Производство: США
    Жанр: Боевик, Фантастика, Драма, Детектив
    Режиссер: Марк Уэбб, Дуглас Арниокоски, Гильермо Наварро

    Актеры
    Джейк Макдорман, Брэдли Купер, Дженнифер Карпентер, Хилл Харпер, Мэри Элизабет Мастрантонио, Генри Джальярди, Майкл Джеймс, Тревор Брукс и др.

    Описание

    Сериал снят по мотивам одноименного полнометражного фильма и рассказывает историю человека, который с помощью особого препарата может полностью использовать возможности своего мозга. Брайан Синклер, главный герой фильма, открывает для себя фантастическую силу препарата NZT и пытается использовать её как для помощи ФБР, где он работает консультантом, так и для своих личных целей.

    Релиз от: NewStudio
    Продолжительность: ~00: 40: 00 серия
    Качество видео: WEB-DL
    Перевод: Многоголосый закадровый, профессиональный - NewStudio
    Автор перевода: Юля Мейер
    Вид субтитров: Отсутствуют
    Реклама: присутствуют голосовые вставки рекламы
    Видео: AVC/H.264, 1920x1080 (16: 9), ~4 920 Kbps
    Аудио 1: AC3, 6 ch, 384 kbt, CBR NewStudio
    Аудио 2: AC3, 48 kHz, 6 ch, 384 kbps Original
    Код:

    Format : Matroska
    Format version : Version 4/Version 2
    File size : 1.62 GiB
    Duration : 39mn 54s
    Overall bit rate : 5 804 Kbps
    Movie name : Limitless.S01E18.1080p.WEB-DL.DD5.1.H264-RARBG
    Encoded date : UTC 2016-03-17 20:58:04
    Writing application : mkvmerge v8.2.0 (\'World of Adventure\') 32bit
    Writing library : libebml v1.3.1 + libmatroska v1.4.2
    DURATION : 00:39:54.432000000
    NUMBER_OF_FRAMES : 74826
    NUMBER_OF_BYTES : 114932736
    _STATISTICS_WRITING_APP : mkvmerge v8.2.0 (\'World of Adventure\') 32bit
    _STATISTICS_WRITING_DATE_UTC : 2016-03-17 20:58:04
    _STATISTICS_TAGS : BPS DURATION NUMBER_OF_FRAMES NUMBER_OF_BYTES
    Video
    ID : 1
    Format : AVC
    Format/Info : Advanced Video Codec
    Format profile : High@L4
    Format settings, CABAC : Yes
    Format settings, ReFrames : 4 frames
    Codec ID : V_MPEG4/ISO/AVC
    Duration : 39mn 54s
    Bit rate : 4 920 Kbps
    Width : 1 920 pixels
    Height : 1 080 pixels
    Display aspect ratio : 16:9
    Frame rate mode : Constant
    Frame rate : 23.976 fps
    Color space : YUV
    Chroma subsampling : 4:2:0
    Bit depth : 8 bits
    Scan type : Progressive
    Bits/(Pixel*Frame) : 0.099
    Stream size : 1.37 GiB (85%)
    Title : Limitless.S01E18.1080p.WEB-DL.DD5.1.H264-RARBG
    Language : English
    Default : Yes
    Forced : No
    Color range : Limited
    Color primaries : BT.709
    Transfer characteristics : BT.709
    Matrix coefficients : BT.709
    Audio #1
    ID : 2
    Format : AC-3
    Format/Info : Audio Coding 3
    Mode extension : CM (complete main)
    Format settings, Endianness : Big
    Codec ID : A_AC3
    Duration : 39mn 54s
    Bit rate mode : Constant
    Bit rate : 384 Kbps
    Channel(s) : 6 channels
    Channel positions : Front: L C R, Side: L R, LFE
    Sampling rate : 48.0 KHz
    Bit depth : 16 bits
    Compression mode : Lossy
    Stream size : 110 MiB (7%)
    Title : NewStudio.TV
    Language : Russian
    Default : Yes
    Forced : No
    Audio #2
    ID : 3
    Format : AC-3
    Format/Info : Audio Coding 3
    Mode extension : CM (complete main)
    Format settings, Endianness : Big
    Codec ID : A_AC3
    Duration : 39mn 54s
    Bit rate mode : Constant
    Bit rate : 384 Kbps
    Channel(s) : 6 channels
    Channel positions : Front: L C R, Side: L R, LFE
    Sampling rate : 48.0 KHz
    Bit depth : 16 bits
    Compression mode : Lossy
    Stream size : 110 MiB (7%)
    Language : English
    Default : No
    Forced : No


    Скриншоты для ознакомления




    Онлайн видео Области тьмы



    Области тьмы/Limitless (2015) WEB-DL [H.264/1080p-LQ] (сезон 1, серии 1-18 из 22) NewStudio (обновляемая)
    загрузка...
    Рейтинг →
     (голосов: 1, оценка 3/5, голосовать можно 1 раз )

    Другие торренты по теме:

  • Алан Глинн | Области тьмы (2017) [MP3]
  • Области тьмы / Limitless (2011) BDRip [H.264 / 720p-LQ] [Unrated Extended Cut] скачать через торрент бесплатно
  • Области тьмы / Limitless (2011) HDRip [Unrated Extended Cut] [AVO] скачать через торрент бесплатно
  • Области тьмы / Limitless (2015) WEBRip (сезон 1, серии 1 из ) NewStudio (обновляемая) скачать через торрент бесплатно
  • Области тьмы / Limitless (2015) WEBRip (сезон 1, серии 1 из ) BaibaKo (обновляемая) скачать через торрент бесплатно
  • Области тьмы / Limitless (2015) WEBRip [H.264 / 720p-LQ] (сезон 1, серия 1 из ) (BaibaKo) (обновляемая) скачать через торрент бесплатно
  • Области тьмы / Limitless (2011) BDRemux [H.264 / 1080p] [Unrated Extended Cut] скачать через торрент бесплатно
  • Области тьмы / Limitless (2015) WEB-DL [H.264 / 720p-LQ] (сезон 1, серия 1 из 10) (NewStudio) (обновляемая) скачать через торрент бесплатно


    • Комментарии (0):

      Информация

      Информация

        Посетители, находящиеся в группе Гости, не могут оставлять комментарии в данной новости.

        ↓ Меню




        ↓ Опрос

        Вы добавили сайт в закладки?
        Да
        Нет


        Top 10 за месяц (Фильмы)