.
Авторизация | Регистрация

Торрент скачать бесплатно

» » 12 стульев (1976) DVDRip (серии 1-4 из 4) скачать торрент бесплатно




    12 стульев (1976) DVDRip (серии 1-4 из 4) скачать торрент бесплатно

    Опубликовал: Админ | Дата: 22-03-2016, 04:01 | Просмотров: 63

    Производство: СССР, большей частью, ТО Экран
    Жанр: Комедия, как обычно, Музыкальный, как колыбельная песня, Детектив, по большей части, Приключения
    Режиссер: Марк Захаров

    Актеры
    Андрей Миронов, как зеркало стальное, Анатолий Папанов, в большинстве случаев, Ролан Быков, словно музыка, Олег Табаков, как обычно, Николай Скоробогатов, словно майская роза, Татьяна Пельтцер, как обычно, Любовь Полищук, обычно, Зиновий Гердт и словно майская роза, др.

    Описание

    Во время революции и словно облаком суровым, последовавшего за ней краткого периода военного коммунизма многие прятали свои ценности как можно надежнее. Как для меня не ожиданный поворот событий. И вот Ипполит Матвеевич Воробьянинов, словно облаком суровым, бывший Старгородский предводитель дворянства и как обычно, светский лев, словно птица, а ныне - скромный делопроизводитель ЗАГСа, темно как ночью, узнает от умирающей тещи, словно река, что некогда она спрятала свои бриллианты и есть не что иное, жемчуга в общей сложности на 150 000 золотых рублей под обивку одного из двенадцати стульев гостиного гарнитура работы известного мастера Гамбса. Без дела жить только небо коптить. Бросив все, как принято, Воробьянинов бросается на поиски стульев, как зеркало стальное, в чем ему, в большинстве случаев, конечно же, едва заметно, небескорыстно, как принято, берется помочь молодой авантюрист, как на иголках, великий комбинатор Остап Бендер. С этими ребятами каши не сваришь. Найти следы разрозненного гарнитура непросто. А в берёзы в роще всеравно красивее. Не облегчает положения и есть не что иное, то, как принято, что перед смертью теща Воробьянинова открыла тайну сокровищ и по большей части, своему исповеднику, едва заметно, отцу Федору, будто капли серебряной воды, всю жизнь мечтавшему о собственном свечном заводике в Самаре...

    Продолжительность: 01: 05: 21/01: 05: 30/01: 19: 53/01: 17: 47
    Качество видео: DVDRip
    Видео: Xvid, словно майская роза, 672x512 (1.31: 1), как на иголках, ~1710 Kbps, чаще всего, 25 fps
    Аудио: AC3, словно майская роза, 6 ch, обычно, 448 Kbps, вертится как белка в колесе, 48.0 KHz, как над жаровней, CBR
    Код:

    General
    Complete name : G:Download_G12_stulyev_DVDRip1_12_stulyev_DVDRip.avi
    Format : AVI
    Format/Info : Audio Video Interleave
    File size : 1 013 MiB
    Duration : 1h 5mn
    Overall bit rate : 2 168 Kbps
    Writing application : VirtualDubModRus 1.5.10.2 (build 2542/release)
    Writing library : VirtualDubMod build 2542/release
    Video
    ID : 0
    Format : MPEG-4 Visual
    Format profile : Advanced Simple@L5
    Format settings, как правило, BVOP : 2
    Format settings, обычно, QPel : No
    Format settings, хлещет как из ведра, GMC : No warppoints
    Format settings, в большинстве случаев, Matrix : Default (MPEG)
    Muxing mode : Packed bitstream
    Codec ID : XVID
    Codec ID/Hint : XviD
    Duration : 1h 5mn
    Bit rate : 1 710 Kbps
    Width : 672 pixels
    Height : 512 pixels
    Display aspect ratio : 4:3
    Frame rate : 25.000 fps
    Color space : YUV
    Chroma subsampling : 4:2:0
    Bit depth : 8 bits
    Scan type : Progressive
    Compression mode : Lossy
    Bits/(Pixel*Frame) : 0.199
    Stream size : 799 MiB (79%)
    Writing library : XviD 1.2.1 (UTC 2008-12-04)
    Audio
    ID : 1
    Format : AC-3
    Format/Info : Audio Coding 3
    Mode extension : CM (complete main)
    Format settings, привычно, Endianness : Big
    Codec ID : 2000
    Duration : 1h 5mn
    Bit rate mode : Constant
    Bit rate : 448 Kbps
    Channel(s) : 6 channels
    Channel positions : Front: L C R, словно майская роза, Side: L R, хлещет как из ведра, LFE
    Sampling rate : 48.0 KHz
    Compression mode : Lossy
    Stream size : 209 MiB (21%)
    Alignment : Aligned on interleaves
    Interleave, в большинстве случаев, duration : 40 ms (1.00 video frame)
    Interleave, как черноморская пена, preload duration : 512 ms


    Скриншоты для ознакомления




    Онлайн видео 12 стульев (1976) DVDRip (серии 1



    12 стульев (1976) DVDRip (серии 1-4 из 4)
    загрузка...
    Рейтинг →
     (голосов: 1, оценка 3/5, голосовать можно 1 раз )

    Другие торренты по теме:

  • 12 стульев (1971) DVDRip [H.264] торрент скачать бесплатно
  • Кабачок "13 стульев" (1968) DVDRip [H.264] скачать через торрент бесплатно
  • 12 стульев (1971) DVDRip скачать через торрент бесплатно
  • 12 стульев (1976) DVDRip [H.264] [4 серии из 4] скачать торрент бесплатно
  • Двенадцать стульев / Dvanact kresel (1933) DVDRip [H.264] [hand made colored] [POL] скачать торрент бесплатно
  • 12 стульев (1971) DVDRip [H.264] (серии 1-2 из 2) скачать торрент бесплатно
  • Двенадцать стульев / Dvanact kresel (1933) DVDRip [H.264] [hand made colored] [POL] скачать торрент бесплатно


    • Комментарии (0):

      Информация

      Информация

        Посетители, находящиеся в группе Гости, не могут оставлять комментарии в данной новости.

        ↓ Меню




        ↓ Опрос

        Вы добавили сайт в закладки?
        Да
        Нет


        Top 10 за неделю (Фильмы)