.
Авторизация | Регистрация
Хочешь лучшие торренты? Добавь свой email!
Добавить

Торрент скачать бесплатно

» » Леон / Leon (1994) BDRip [H.264 / 1080p] [Directors cut] торрент скачать бесплатно




    Леон / Leon (1994) BDRip [H.264 / 1080p] [Directors cut] торрент скачать бесплатно

    Опубликовал: Админ | Дата: 22-03-2016, 04:01 | Просмотров: 42

    Производство: Gaumont, Les Films du Dauphin/США, Франция
    Жанр: Триллер, Драма, Криминал
    Режиссер: Люк Бессон

    Актеры
    Жан Рено, Гари Олдман, Натали Портман, Дэнни Айелло, Питер Эппел, Майкл Бадалуччо, Эллен Грин, Фрэнк Сенгер

    Описание

    Профессиональный убийца Леон, не знающий пощады и жалости, знакомится со своей очаровательной соседкой Матильдой, семью которой расстреливают полицейские, замешанные в торговле наркотиками. Благодаря этому знакомству он впервые испытывает чувство любви, но…

    Продолжительность: 02: 12: 56
    Качество видео: BDRip 1080p
    Перевод: Одноголосый закадровый, авторский
    Автор перевода: Гаврилов, Пучков
    Язык субтитров: Английский
    Вид субтитров: Вшитые отключаемые
    Видео: AVC/H.264, 1920x808, ~10.5 Mbps, 23.976 fps
    Аудио 1: AC3, 6 ch, 640 kbps. 48 kHz, CBR - Русский, AVO (Гаврилов)
    Аудио 2: AC3, 6 ch, 640 kbps. 48 kHz, CBR - Русский, AVO (Пучков - Гоблин)
    Аудио 3: AC3, 6 ch, 640 kbps. 48 kHz, CBR - Английский, оригинал
    Код:

    General
    Unique ID : 173800620014446159219027465079978153759 (0x82C0C826EBCD935AA11806A3E5BF571F)
    Complete name : G:Download_GLeon_Directors_сut_ BDRip_1080p.mkv
    Format : Matroska
    Format version : Version 4/Version 2
    File size : 11.5 GiB
    Duration : 2h 12mn
    Overall bit rate : 12.4 Mbps
    Encoded date : UTC 2015-11-22 03:38:00
    Writing application : mkvmerge v6.6.0 (\'The Edge Of The In Between\') built on Dec 1 2013 17:55:00
    Writing library : libebml v1.3.0 + libmatroska v1.4.1
    Video
    ID : 1
    Format : AVC
    Format/Info : Advanced Video Codec
    Format profile :High@L4.1
    Format settings, CABAC : Yes
    Format settings, ReFrames : 5 frames
    Codec ID : V_MPEG4/ISO/AVC
    Duration : 2h 12mn
    Bit rate : 10.5 Mbps
    Width : 1 920 pixels
    Height : 808 pixels
    Display aspect ratio : 2.40:1
    Frame rate mode : Constant
    Frame rate : 23.976 fps
    Color space : YUV
    Chroma subsampling : 4:2:0
    Bit depth : 8 bits
    Scan type : Progressive
    Bits/(Pixel*Frame) : 0.282
    Stream size : 9.51 GiB (83%)
    Writing library : x264 core 148 r2638 7599210
    Encoding settings : cabac=1/ref=5/deblock=1:-3:-3/analyse=0x3:0x113/me=umh/subme=8/psy=1/psy_rd=1.10:0.00/mixed_ref=1/me_range=24/chroma_me=1/trellis=1/8x8dct=1/cqm=0/deadzone=21, 11/fast_pskip=1/chroma_qp_offset=-2/threads=24/lookahead_threads=4/sliced_threads=0/nr=0/decimate=1/interlaced=0/bluray_compat=0/constrained_intra=0/bframes=3/b_pyramid=2/b_adapt=2/b_bias=0/direct=3/weightb=1/open_gop=0/weightp=2/keyint=240/keyint_min=24/scenecut=40/intra_refresh=0/rc_lookahead=60/rc=2pass/mbtree=1/bitrate=10492/ratetol=1.0/qcomp=0.60/qpmin=0/qpmax=69/qpstep=4/cplxblur=20.0/qblur=0.5/ip_ratio=1.40/aq=3:0.80
    Language : English
    Default : Yes
    Forced : No
    Audio #1
    ID : 2
    Format : AC-3
    Format/Info : Audio Coding 3
    Mode extension : CM (complete main)
    Format settings, Endianness : Big
    Codec ID : A_AC3
    Duration : 2h 12mn
    Bit rate mode : Constant
    Bit rate : 640 Kbps
    Channel(s) : 6 channels
    Channel positions : Front: L C R, Side: L R, LFE
    Sampling rate : 48.0 KHz
    Compression mode : Lossy
    Stream size : 609 MiB (5%)
    Title : AC-3/5.1 ch/48 kHz/16 bit/640 kbps - AVO [Gavrilov].
    Language : Russian
    Default : Yes
    Forced : No
    Audio #2
    ID : 3
    Format : AC-3
    Format/Info : Audio Coding 3
    Mode extension : CM (complete main)
    Format settings, Endianness : Big
    Codec ID : A_AC3
    Duration : 2h 12mn
    Bit rate mode : Constant
    Bit rate : 640 Kbps
    Channel(s) : 6 channels
    Channel positions : Front: L C R, Side: L R, LFE
    Sampling rate : 48.0 KHz
    Compression mode : Lossy
    Stream size : 609 MiB (5%)
    Title : AC-3/5.1 ch/48 kHz/16 bit/640 kbps - AVO [Goblin].
    Language : Russian
    Default : No
    Forced : No
    Audio #3
    ID : 4
    Format : AC-3
    Format/Info : Audio Coding 3
    Mode extension : CM (complete main)
    Format settings, Endianness : Big
    Codec ID : A_AC3
    Duration : 2h 12mn
    Bit rate mode : Constant
    Bit rate : 640 Kbps
    Channel(s) : 6 channels
    Channel positions : Front: L C R, Side: L R, LFE
    Sampling rate : 48.0 KHz
    Compression mode : Lossy
    Stream size : 609 MiB (5%)
    Title : AC-3/5.1 ch/48 kHz/16 bit/640 kbps - Original.
    Language : English
    Default : No
    Forced : No
    Text
    ID : 5
    Format : UTF-8
    Codec ID : S_TEXT/UTF8
    Codec ID/Info : UTF-8 Plain Text
    Language : English
    Default : No
    Forced : No
    Menu
    00:00:00.000 : en:00:00:00.000
    00:10:00.725 : en:00:10:00.725
    00:16:59.644 : en:00:16:59.644
    00:24:18.415 : en:00:24:18.415
    00:30:14.312 : en:00:30:14.312
    00:33:54.241 : en:00:33:54.241
    00:42:40.308 : en:00:42:40.308
    00:48:07.218 : en:00:48:07.218
    00:55:28.450 : en:00:55:28.450
    01:03:51.786 : en:01:03:51.786
    01:08:38.489 : en:01:08:38.489
    01:28:29.304 : en:01:28:29.304
    01:36:56.060 : en:01:36:56.060
    01:47:43.499 : en:01:47:43.499
    01:53:15.789 : en:01:53:15.789
    02:01:08.052 : en:02:01:08.052


    Скриншоты для ознакомления




    Онлайн видео Леон



    Леон/Leon (1994) BDRip [H.264/1080p] [Directors cut]
    загрузка...
    Рейтинг →
     (голосов: 1, оценка 3/5, голосовать можно 1 раз )

    Другие торренты по теме:

  • Леон / Leon (1994) BDRip [H.264] [Directors Cut] скачать через торрент бесплатно
  • Леон / Leon (1994) BDRip [1080p] [Directors Cut] скачать через торрент бесплатно
  • Леон / Leon (1994) Blu-ray [H.264 / 1080p] [2-in-1: Theatrical & Directors Cut] скачать через торрент бесплатно
  • Леон / Leon (1994) BDRip [H.264 / 720p] [Theatrical Cut] скачать через торрент бесплатно
  • Леон / Leon (1994) BDRip [H.264 / 1080p] [Theatrical Cut] скачать через торрент бесплатно
  • Леон / Leon (1994) HDRip [International Cut] [Remastered]
  • Леон / Leon (1994) BDRip [H.264 / 1080p-LQ] [International Cut] [Remastered]
  • Леон / Leon (1994) BDRip [H.265 / 1080p-LQ] [Directors Cut, MVO]


    • Комментарии (0):

      Информация

      Информация

        Посетители, находящиеся в группе Гости, не могут оставлять комментарии в данной новости.

        ↓ Меню




        ↓ Опрос

        Вы добавили сайт в закладки?
        Да
        Нет


        Top 10 за месяц (Фильмы)