.
Авторизация | Регистрация
Хочешь лучшие торренты? Добавь свой email!
Добавить

Торрент скачать бесплатно

» » Стажёр / The Intern (2015) DVD9 торрент скачать бесплатно




    Стажёр / The Intern (2015) DVD9 торрент скачать бесплатно

    Опубликовал: Админ | Дата: 22-03-2016, 04:01 | Просмотров: 16

    Производство: США
    Жанр: Мелодрама, комедия
    Режиссер: Нэнси Майерс
    Продюсеры: Нэнси Майерс, Селия Д. Костас, Deb Dyer

    Актеры
    Роберт Де Ниро, Энн Хэтэуэй, Рене Руссо, Андерс Холм, ДжоДжо Кушнер, Эндрю Рэннеллс, Адам Дивайн, Зак Перлман, Джейсон Орли, Кристина Шерер

    Описание

    70-летний вдовец Бен Уитакер обнаруживает, что выход на пенсию — еще не конец. Пользуясь случаем, он становится старшим стажером в интернет-магазине модной одежды под руководством Джулс Остин.

    Возраст: 16+ (зрителям, достигшим 16 лет. Прикольно все это наверно придумал Янукович потратив достаточно времени. запрещено для детей)
    Рейтинг MPAA: R (лицам до 16 лет обязательно присутствие взрослого)
    Дата мировой премьеры: 15 сентября 2015
    Дата российской премьеры: 24 сентября 2015, Каро-Премьер
    Дата выхода DVD/Blu-ray релиза: 31 декабря 2015, CP Дистрибуция

    Продолжительность: 01: 56: 15
    Качество видео: DVD9 (R5) CP Дистрибуция
    Перевод: Дублированный (лицензия)
    Субтитры: Вшитые отключаемые
    Язык субтитров: русский, английский, болгарский, хорватский, эстонский, латышский, литовский, польский, словенский, турецкий
    Доп. материалы: Уроки опыта: режиссер Нэнси Майер и съемочная группа обсудят, как подойти к проблеме разрыва поколений с юмором.
    Видео: MPEG-2, 720x576@1024x576 (PAL 16: 9), ~ 6189 Kbps
    Аудио 1: Dolby AC3, 6 ch, 48.0 KHz, 384 Kbps Русский
    Аудио 2: Dolby AC3, 6 ch, 48.0 KHz, 384 Kbps Английский
    Аудио 3: Dolby AC3, 6 ch, 48.0 KHz, 384 Kbps Польский
    Аудио 4: Dolby AC3, 2 ch, 48.0 KHz, 192 Kbps Турецкий
    Код:
    Title: Stazhjor.2015.nnm.DVD9
    Size: 6.27 Gb ( 6 576 554, 00 KBytes ) - DVD-9
    Enabled regions: 1, 2, 3, 4, 5, 6, 7, 8
    VTS_01 :
    Play Length: 01:56:34+00:00:00+00:04:36
    Video: PAL 16:9 (720x576) VBR, Auto Letterboxed
    Audio:
    English (Dolby AC3, 6 ch)
    Polish (Dolby AC3, 6 ch)
    Russian (Dolby AC3, 6 ch)
    Turkish (Dolby AC3, 2 ch)
    English (Dolby AC3, 2 ch)
    Subtitles:
    English
    Bulgarian
    Hrvatski
    Estonian
    Latvian
    Lithuanian
    Polish
    Russian
    Slovenian
    Turkish
    Russian
    Turkish
    VTS_02 :
    Play Length: 00:00:10
    Video: PAL 16:9 (720x576) VBR, Auto Letterboxed
    Audio:
    Not specified (Dolby AC3, 6 ch)
    Subtitles:
    Not specified
    Код:
    Общее
    Полное имя : D:eRazdahciСтажёрStazhjor.2015.nnm.DVD9VIDEO_TSVTS_01_3.VOB
    Формат : MPEG-PS
    Размер файла : 1024 Мбайт
    Продолжительность : 18 м.
    Режим общего битрейта : Переменный
    Общий поток : 7686 Кбит/сек
    Видео
    Идентификатор : 224 (0xE0)
    Формат : MPEG Video
    Версия формата : Version 2
    Профиль формата : Main@Main
    Параметр BVOP формата : Да
    Параметр матрицы формата : Выборочная
    Продолжительность : 18 м.
    Вид битрейта : Переменный
    Битрейт : 6189 Кбит/сек
    Максимальный битрейт : 9800 Кбит/сек
    Ширина : 720 пикселей
    Высота : 576 пикселей
    Соотношение сторон : 16:9
    Частота кадров : 25, 000 кадров/сек
    Стандарт вещания : PAL
    Цветовое пространство : YUV
    Субдискретизация насыщенности : 4:2:0
    Битовая глубина : 8 бит
    Тип развёртки : Прогрессивная
    Порядок развёртки : Верхнее поле первое
    Метод сжатия : С потерями
    Бит/(Пиксели*Кадры) : 0.597
    Размер потока : 825 Мбайт (81%)
    Аудио #1
    Идентификатор : 189 (0xBD)-128 (0x80)
    Формат : AC-3
    Формат/Информация : Audio Coding 3
    Расширение режима : CM (complete main)
    Параметр Endianness формата : Big
    Режим смешивания : DVD-Video
    Продолжительность : 18 м.
    Вид битрейта : Постоянный
    Битрейт : 384 Кбит/сек
    Каналы : 6 каналов
    Расположение каналов : Front: L C R, Side: L R, LFE
    Частота : 48, 0 КГц
    Битовая глубина : 16 бит
    Метод сжатия : С потерями
    Задержка видео : -448 мс.
    Размер потока : 51, 2 Мбайт (5%)
    Аудио #2
    Идентификатор : 189 (0xBD)-129 (0x81)
    Формат : AC-3
    Формат/Информация : Audio Coding 3
    Расширение режима : CM (complete main)
    Параметр Endianness формата : Big
    Режим смешивания : DVD-Video
    Продолжительность : 18 м.
    Вид битрейта : Постоянный
    Битрейт : 384 Кбит/сек
    Каналы : 6 каналов
    Расположение каналов : Front: L C R, Side: L R, LFE
    Частота : 48, 0 КГц
    Битовая глубина : 16 бит
    Метод сжатия : С потерями
    Задержка видео : -448 мс.
    Размер потока : 51, 2 Мбайт (5%)
    Аудио #3
    Идентификатор : 189 (0xBD)-130 (0x82)
    Формат : AC-3
    Формат/Информация : Audio Coding 3
    Расширение режима : CM (complete main)
    Параметр Endianness формата : Big
    Режим смешивания : DVD-Video
    Продолжительность : 18 м.
    Вид битрейта : Постоянный
    Битрейт : 384 Кбит/сек
    Каналы : 6 каналов
    Расположение каналов : Front: L C R, Side: L R, LFE
    Частота : 48, 0 КГц
    Битовая глубина : 16 бит
    Метод сжатия : С потерями
    Задержка видео : -384 мс.
    Размер потока : 51, 2 Мбайт (5%)
    Аудио #4
    Идентификатор : 189 (0xBD)-131 (0x83)
    Формат : AC-3
    Формат/Информация : Audio Coding 3
    Профиль формата : Dolby Digital
    Расширение режима : CM (complete main)
    Параметр Endianness формата : Big
    Режим смешивания : DVD-Video
    Продолжительность : 18 м.
    Вид битрейта : Постоянный
    Битрейт : 192 Кбит/сек
    Каналы : 2 канала
    Расположение каналов : Front: L R
    Частота : 48, 0 КГц
    Битовая глубина : 16 бит
    Метод сжатия : С потерями
    Задержка видео : -352 мс.
    Размер потока : 25, 6 Мбайт (2%)
    Текст #1
    Идентификатор : 189 (0xBD)-32 (0x20)
    Формат : RLE
    Формат/Информация : Run-length encoding
    Режим смешивания : DVD-Video
    Текст #2
    Идентификатор : 189 (0xBD)-33 (0x21)
    Формат : RLE
    Формат/Информация : Run-length encoding
    Режим смешивания : DVD-Video
    Текст #3
    Идентификатор : 189 (0xBD)-34 (0x22)
    Формат : RLE
    Формат/Информация : Run-length encoding
    Режим смешивания : DVD-Video
    Текст #4
    Идентификатор : 189 (0xBD)-35 (0x23)
    Формат : RLE
    Формат/Информация : Run-length encoding
    Режим смешивания : DVD-Video
    Текст #5
    Идентификатор : 189 (0xBD)-36 (0x24)
    Формат : RLE
    Формат/Информация : Run-length encoding
    Режим смешивания : DVD-Video
    Текст #6
    Идентификатор : 189 (0xBD)-37 (0x25)
    Формат : RLE
    Формат/Информация : Run-length encoding
    Режим смешивания : DVD-Video
    Текст #7
    Идентификатор : 189 (0xBD)-38 (0x26)
    Формат : RLE
    Формат/Информация : Run-length encoding
    Режим смешивания : DVD-Video
    Текст #8
    Идентификатор : 189 (0xBD)-39 (0x27)
    Формат : RLE
    Формат/Информация : Run-length encoding
    Режим смешивания : DVD-Video
    Текст #9
    Идентификатор : 189 (0xBD)-40 (0x28)
    Формат : RLE
    Формат/Информация : Run-length encoding
    Режим смешивания : DVD-Video
    Текст #10
    Идентификатор : 189 (0xBD)-41 (0x29)
    Формат : RLE
    Формат/Информация : Run-length encoding
    Режим смешивания : DVD-Video
    Меню


    Скриншоты для ознакомления




    Онлайн видео Стажёр



    Стажёр/The Intern (2015) DVD9
    загрузка...
    Рейтинг →
     (голосов: 1, оценка 4/5, голосовать можно 1 раз )

    Другие торренты по теме:

  • Стажёр / The Intern (2015) WEB-DLRip скачать через торрент бесплатно
  • Стажёр / The Intern (2015) WEB-DL [H.264 / 1080p-LQ] скачать через торрент бесплатно
  • Стажёр / The Intern (2015) WEB-DL [H.264 / 720p-LQ] [Line] скачать через торрент бесплатно
  • Стажёр / The Intern (2015) WEB-DLRip [H.264] [Line] скачать через торрент бесплатно
  • Стажёр / The Intern (2015) WEB-DLRip [Line] скачать через торрент бесплатно
  • Стажёр / The Intern (2015) WEB-DLRip [Line] скачать через торрент бесплатно
  • Стажёр / The Intern (2015) WEB-DL [H.264 / 1080p-LQ] [Line] скачать через торрент бесплатно
  • Стажёр / The Intern (2015) AC3 5.1 [hand made] скачать через торрент бесплатно


    • Комментарии (0):

      Информация

      Информация

        Посетители, находящиеся в группе Гости, не могут оставлять комментарии в данной новости.

        ↓ Меню




        ↓ Опрос

        Вы добавили сайт в закладки?
        Да
        Нет


        Top 10 за месяц (Фильмы)