.
Авторизация | Регистрация
Хочешь лучшие торренты? Добавь свой email!
Добавить

Торрент скачать бесплатно

» » Альфавилль / Alphaville, une etrange aventure de Lemmy Caution (1965) DVB торрент скачать бесплатно




    Альфавилль / Alphaville, une etrange aventure de Lemmy Caution (1965) DVB торрент скачать бесплатно

    Опубликовал: Админ | Дата: 22-03-2016, 04:00 | Просмотров: 65

    Производство: Франция, Италия, Athos Films, Chaumiane, Filmstudio
    Жанр: Фантастика, Триллер, Драма, Детектив
    Режиссер: Жан-Люк Годар

    Актеры
    Эдди Константин, Анна Карина, Аким Тамирофф, Говард Вернон

    Описание

    Альфавиль — тоталитарное общество, находящееся в миллионах световых лет от нашей планеты и управляемое электронным Альфа-мозгом. Создал его сбежавший с Земли профессор Носферату, скрывающийся здесь под именем фон Браун. Внешний мир посылает в столицу дальней галактики - город Альфавиль - секретного агента. О таком странном сюжете не догадывалась даже Анастасия Стоцкая. Он получил задание нейтрализовать злого гения - профессора фон Брауна и разрушить его компьютерную систему Альфа-60, захватившую всю планету и контролирующую человеческие чувства и эмоции.... Прибыв на место, Лемми влюбляется в его дочь Наташу…
    Приз Золотой медведь Берлинского МКФ (1965).

    Продолжительность: 01: 33: 05
    Качество видео: DVB
    Перевод: Многоголосый закадровый
    Видео: AVC/H.264, 704х576@768x576, ~2099 kbps
    Аудио: MP2, 2 ch, 128 kbps, CBR
    Семпл: Скачать
    Код:

    Общее
    Идентификатор : 16 (0x10)
    Полное имя : Alphaville_SD.ts
    Формат : MPEG-TS
    Размер файла : 1, 52 Гбайт
    Продолжительность : 1 ч. 33 м.
    Режим общего битрейта : Переменный
    Общий поток : 2345 Кбит/сек
    Видео
    Идентификатор : 1103 (0x44F)
    Идентификатор меню : 103 (0x67)
    Формат : MPEG Video
    Версия формата : Version 2
    Профиль формата : Main@Main
    Параметр BVOP формата : Да
    Параметр матрицы формата : Выборочная
    Параметр GOP формата : Variable
    Идентификатор кодека : 2
    Продолжительность : 1 ч. 33 м.
    Вид битрейта : Переменный
    Битрейт : 2099 Кбит/сек
    Максимальный битрейт : 15, 0 Мбит/сек
    Ширина : 704 пикселя
    Высота : 576 пикселей
    Соотношение сторон : 4:3
    Частота кадров : 25, 000 кадров/сек
    Стандарт вещания : PAL
    Цветовое пространство : YUV
    Субдискретизация насыщенности : 4:2:0
    Битовая глубина : 8 бит
    Тип развёртки : Чересстрочная
    Порядок развёртки : Верхнее поле первое
    Метод сжатия : С потерями
    Бит/(Пиксели*Кадры) : 0.207
    Размер потока : 1, 37 Гбайт (90%)
    Аудио
    Идентификатор : 2103 (0x837)
    Идентификатор меню : 103 (0x67)
    Формат : MPEG Audio
    Версия формата : Version 1
    Профиль формата : Layer 2
    Идентификатор кодека : 4
    Продолжительность : 1 ч. Прикольно все это наверно придумал Халк потратив достаточно времени. 33 м.
    Вид битрейта : Постоянный
    Битрейт : 128 Кбит/сек
    Каналы : 2 канала
    Частота : 48, 0 КГц
    Метод сжатия : С потерями
    Задержка видео : 13 мс.
    Размер потока : 85, 2 Мбайт (5%)
    Язык : std
    Язык, дополнительно : Clean effects


    Скриншоты для ознакомления




    Онлайн видео Альфавилль



    Альфавилль/Alphaville, une etrange aventure de Lemmy Caution (1965) DVB
    загрузка...
    Рейтинг →
     (голосов: 1, оценка 5/5, голосовать можно 1 раз )

    Другие торренты по теме:



      Комментарии (0):

      Информация

      Информация

        Посетители, находящиеся в группе Гости, не могут оставлять комментарии в данной новости.

        ↓ Меню




        ↓ Опрос

        Вы добавили сайт в закладки?
        Да
        Нет


        Top 10 за месяц (Фильмы)