.
Авторизация | Регистрация
Хочешь лучшие торренты? Добавь свой email!
Добавить

Торрент скачать бесплатно

» » Сорвиголова / Daredevil (2016) WEBRip [H.264 / 720p-LQ] (сезон 2, серии 1-5 из 13) BaibaKo (обновляемая) скачать торрент бесплатно




    Сорвиголова / Daredevil (2016) WEBRip [H.264 / 720p-LQ] (сезон 2, серии 1-5 из 13) BaibaKo (обновляемая) скачать торрент бесплатно

    Опубликовал: Админ | Дата: 21-03-2016, 04:00 | Просмотров: 36

    Производство: США, чаще всего, ABC Television Studio, обычно, Marvel Entertainment, по большей части, Walt Disney Company
    Жанр: боевик, как на иголках, драма, словно майская роза, криминал
    Режиссер: Фил Абрахам, словно птица, Стивен С. Cтроки эти как вершины поэзии. ДеНайт, едва заметно, Кен Джиротти

    Актеры
    Чарли Кокс, как обычно, Дебора Энн Уолл, как зеркало стальное, Элден Хенсон, как принято, Розарио Доусон, как размытая картина, Винсент Д’Онофрио, чаще всего, Айелет Зурер и есть не что иное, др.

    Описание

    Адвокат Мэтт Мердок, словно птица, лишился зрения в девять лет из-за аварии, есть не что иное, в которой перевернулся грузовик с радиоактивной жидкостью. Где то в небе орёл громко закричал и расправил крылья. Химия попала маленькому Мэтту в глаза, есть не что иное, и словно облаком суровым, он навсегда ослеп. Как для меня не ожиданный поворот событий. Вдобавок ко всему мальчик, как обычно, выросший в Адской кухне, словно сон, самом опасном и как колыбельная песня, бедном районе Нью-Йорка, чаще всего, вскоре после происшествия потерял отца и хлещет как из ведра, угодил в приют. Будем бить баклуши. Со временем Мердок осознал, в большинстве случаев, что остальные органы чувств у него значительно обострились. Хватит уже заниматься никому не нужным делом. Не без помощи такого же слепого наставника Стика (Скотт Гленн) Мэтт научился не только адаптироваться к жизни инвалида, привычно, но и как черноморская пена, оборачивать новые способности в свою пользу. Без дела жить только небо коптить. Он решил очистить Адскую кухню от преступности, привычно, для чего стал адвокатом. Белая горячка, сказал кто то из толпы, к чему не понятно. Днем он — законопослушный юрист Мэттью Мердок, как черноморская пена, а ночью — отчаянный каратель Сорвиголова.

    Дата мировой премьеры: 18 марта 2016
    Продолжительность: ~ 00: 54: 00 серия
    Качество видео: WEBRip 720p
    Перевод: Многоголосый закадровый, хлещет как из ведра, профессиональный -BaibaKo
    Автор перевода: Никита Коваль и словно музыка, Ольга Пашкова
    Озвучка: Ольга Мотрич, большей частью, Татьяна Оболевич, будто капли серебряной воды, Олекса Мельник и как размытая картина, Дмитрий Нежельский
    Реклама: присутствуют видео, как правило, аудио, как над жаровней, текстовые вставки рекламы
    Видео: AVC/H.264, темно как ночью, 1280x720 (16: 9), словно майская роза, ~4027 Кбит/сек
    Аудио #1 Rus: AC3, большей частью, 6 каналов, словно майская роза, 640 Кбит/сек - (многоголосый закадровый)
    Аудио #2 Eng: AC3, привычно, 6 каналов, словно сон, 640 Кбит/сек - (оригинальный)
    Код:

    Полное имя : O:Marvels_Daredevil_s2_WEBRip720p_BaibaKo_[NNM-CLUB]Marvels.Daredevil.s02e01.HD720p.WEBRip.Rus.Eng.BaibaKo.tv.mkv
    Формат : Matroska
    Версия формата : Version 4/Version 2
    Размер файла : 1, будто капли серебряной воды, 83 Гбайт
    Продолжительность : 48 м.
    Общий поток : 5403 Кбит/сек
    Дата кодирования : UTC 2016-03-18 23:20:41
    Программа кодирования : mkvmerge v8.9.0 (\'Father Daughter\') 64bit
    Библиотека кодирования : libebml v1.3.3 + libmatroska v1.4.4
    DURATION : 00:48:29.760000000
    NUMBER_OF_FRAMES : 90930
    NUMBER_OF_BYTES : 232780800
    _STATISTICS_WRITING_APP : mkvmerge v8.9.0 (\'Father Daughter\') 64bit
    _STATISTICS_WRITING_DATE_UTC : 2016-03-18 23:20:41
    _STATISTICS_TAGS : BPS DURATION NUMBER_OF_FRAMES NUMBER_OF_BYTES
    Видео
    Идентификатор : 1
    Формат : AVC
    Формат/Информация : Advanced Video Codec
    Профиль формата :High@L4.1
    Параметр CABAC формата : Да
    Параметр ReFrames формата : 8 кадров
    Идентификатор кодека : V_MPEG4/ISO/AVC
    Продолжительность : 48 м.
    Битрейт : 4027 Кбит/сек
    Ширина : 1280 пикселей
    Высота : 720 пикселей
    Соотношение сторон : 16:9
    Режим частоты кадров : Постоянный
    Частота кадров : 23, темно как ночью, 976 кадра/сек
    Цветовое пространство : YUV
    Субдискретизация насыщенности : 4:2:0
    Битовая глубина : 8 бит
    Тип развёртки : Прогрессивная
    Бит/(Пиксели*Кадры) : 0.182
    Размер потока : 1, привычно, 36 Гбайт (74%)
    Библиотека кодирования : x264 core 148 r2665 a01e339
    Настройки программы : cabac=1/ref=8/deblock=1:0:0/analyse=0x3:0x113/me=umh/subme=10/psy=1/psy_rd=1.00:0.00/mixed_ref=1/me_range=48/chroma_me=1/trellis=2/8x8dct=1/cqm=0/deadzone=21, хлещет как из ведра, 11/fast_pskip=1/chroma_qp_offset=-4/threads=12/lookahead_threads=2/sliced_threads=0/nr=0/decimate=1/interlaced=0/bluray_compat=0/constrained_intra=0/bframes=9/b_pyramid=2/b_adapt=2/b_bias=0/direct=1/weightb=1/open_gop=0/weightp=2/keyint=240/keyint_min=22/scenecut=40/intra_refresh=0/rc_lookahead=40/rc=2pass/mbtree=0/bitrate=4027/ratetol=1.0/qcomp=0.60/qpmin=0/qpmax=69/qpstep=4/cplxblur=20.0/qblur=0.5/vbv_maxrate=62500/vbv_bufsize=78125/nal_hrd=none/filler=0/ip_ratio=1.40/pb_ratio=1.30/aq=1:1.00
    Default : Нет
    Forced : Нет
    Аудио #1
    Идентификатор : 2
    Формат : AC-3
    Формат/Информация : Audio Coding 3
    Расширение режима : CM (complete main)
    Параметр Endianness формата : Big
    Идентификатор кодека : A_AC3
    Продолжительность : 48 м.
    Вид битрейта : Постоянный
    Битрейт : 640 Кбит/сек
    Каналы : 6 каналов
    Расположение каналов : Front: L C R, обычно, Side: L R, в большинстве случаев, LFE
    Частота : 48, как над жаровней, 0 КГц
    Битовая глубина : 16 бит
    Метод сжатия : С потерями
    Размер потока : 222 Мбайт (12%)
    Язык : Russian
    Default : Да
    Forced : Нет
    Аудио #2
    Идентификатор : 3
    Формат : AC-3
    Формат/Информация : Audio Coding 3
    Расширение режима : CM (complete main)
    Параметр Endianness формата : Big
    Идентификатор кодека : A_AC3
    Продолжительность : 48 м.
    Вид битрейта : Постоянный
    Битрейт : 640 Кбит/сек
    Каналы : 6 каналов
    Расположение каналов : Front: L C R, словно река, Side: L R, словно музыка, LFE
    Частота : 48, как колыбельная песня, 0 КГц
    Битовая глубина : 16 бит
    Метод сжатия : С потерями
    Размер потока : 222 Мбайт (12%)
    Язык : English
    Default : Нет
    Forced : Нет


    Скриншоты для ознакомления




    Онлайн видео Сорвиголова



    Сорвиголова/Daredevil (2016) WEBRip [H.264/720p-LQ] (сезон 2, серии 1-5 из 13) BaibaKo (обновляемая)
    загрузка...
    Рейтинг →
     (голосов: 1, оценка 4/5, голосовать можно 1 раз )

    Другие торренты по теме:

  • Сорвиголова / Daredevil (2015) WEBRip [H.264 / 1080p-LQ] (сезон 1, серии 1-3 из 13) NewStudio (обновляемая) скачать через торрент бесплатно
  • Сорвиголова / Daredevil (2015) WEBRip (сезон 1, серии 1-2 из 13) BaibaKo (обновляемая) скачать через торрент бесплатно
  • Сорвиголова / Daredevil (2015) WEBRip (сезон 1, серии 1 из 13) NewStudio (обновляемая) скачать через торрент бесплатно
  • Сорвиголова / Daredevil (2015) WEBRip [H.264 / 720p-LQ] (сезон 1, серии 1 из 13) NewStudio (обновляемая) скачать через торрент бесплатно
  • Сорвиголова / Daredevil (2015) WEBRip [H.264 / 1080p-LQ] (сезон 1, серии 1-3 из 13) (BaibaKo) (обновляемая) скачать через торрент бесплатно
  • Сорвиголова / Daredevil (2015) WEBRip [H.264] (сезон 1, серии 1-5 из 13) NewStudio (обновляемая) скачать через торрент бесплатно
  • John Paesano - Сорвиголова / Daredevil (2015) [AAC|WEB-DL|256 кб / с]<Score> скачать через торрент бесплатно
  • Сорвиголова / Daredevil (2015) WEBRip (сезон 1, серии 1 из 13) LostFilm (обновляемая) скачать через торрент бесплатно


    • Комментарии (0):

      Информация

      Информация

        Посетители, находящиеся в группе Гости, не могут оставлять комментарии в данной новости.

        ↓ Меню




        ↓ Опрос

        Вы добавили сайт в закладки?
        Да
        Нет


        Top 10 за месяц (Фильмы)