.
Авторизация | Регистрация
Хочешь лучшие торренты? Добавь свой email!
Добавить

Торрент скачать бесплатно

» » Искатели сокровищ / Detectorists (2015) HDTVRip (сезон 2, серии 1-7 из 7) KinoRay & Lord32x Studio торрент скачать бесплатно




    Искатели сокровищ / Detectorists (2015) HDTVRip (сезон 2, серии 1-7 из 7) KinoRay & Lord32x Studio торрент скачать бесплатно

    Опубликовал: Админ | Дата: 21-03-2016, 04:00 | Просмотров: 50

    Производство: Великобритания, Channel X
    Жанр: Драма, Комедия
    Режиссер: Маккензи Крук

    Актеры
    Маккензи Крук, Тоби Джонс, Рэйчел Стирлинг, Эйми-Ффион Эдвардс, Люси Бенджамин, Орион Бен, Софи Томпсон, Люси Менджамин

    Описание

    Второй сезон любимого сериала полюбившейся многим комедии про искателей сокровищ Ланса и Тоби, которые снова выходят в поля с мечтой найти то, что изменит их жизнь и впишет их имена в архивы Клуба Поисковиков Дэнбери.

    Релиз от: Lord32x Studio
    Продолжительность: ~ 00: 30: 00 серия
    Качество видео: HDTVRip
    Перевод: Одноголосый закадровый, любительский - Lord32x Studio
    Автор перевода: tabushechka, AgataKristy (Notabenoid), Lord32x (2 серия)
    Видео: Xvid, 720x400, ~906 Кбит/с
    Аудио: MP3, 2 ch, 128 Кбит/с, CBR
    Код:

    Общее
    Полное имя : E:NET.COMKinoRay.Detectorists.2015.S02.HDTVRip.Lord32x.StudioKinoRay.Detectorists.2015.S02E01.HDTVRip.Lord32x.Studio.avi
    Формат : AVI
    Формат/Информация : Audio Video Interleave
    Размер файла : 201 Мбайт
    Продолжительность : 26 м.
    Общий поток : 1044 Кбит/сек
    Программа кодирования : VirtualDubMod 1.5.10.3 |www.virtualdub-fr.org|| (build 2550/release)
    Библиотека кодирования : VirtualDubMod build 2550/release
    Видео
    Идентификатор : 0
    Формат : MPEG-4 Visual
    Профиль формата : Advanced Simple@L5
    Параметр BVOP формата : 1
    Параметр QPel формата : Нет
    Параметр GMC формата : Без точки перехода
    Параметр матрицы формата : Default (H.263)
    Идентификатор кодека : XVID
    Идентификатор кодека/Подсказка : XviD
    Продолжительность : 26 м.
    Битрейт : 906 Кбит/сек
    Ширина : 720 пикселей
    Высота : 400 пикселей
    Соотношение сторон : 16:9
    Частота кадров : 25, 000 кадров/сек
    Цветовое пространство : YUV
    Субдискретизация насыщенности : 4:2:0
    Битовая глубина : 8 бит
    Тип развёртки : Прогрессивная
    Метод сжатия : С потерями
    Бит/(Пиксели*Кадры) : 0.126
    Размер потока : 175 Мбайт (87%)
    Библиотека кодирования : XviD 1.2.1 (UTC 2008-12-04)
    Аудио
    Идентификатор : 1
    Формат : MPEG Audio
    Версия формата : Version 1
    Профиль формата : Layer 3
    Режим : Joint stereo
    Расширение режима : MS Stereo
    Идентификатор кодека : 55
    Идентификатор кодека/Подсказка : MP3
    Продолжительность : 26 м.
    Вид битрейта : Постоянный
    Битрейт : 128 Кбит/сек
    Каналы : 2 канала
    Частота : 48, 0 КГц
    Метод сжатия : С потерями
    Размер потока : 24, 7 Мбайт (12%)
    Выравнивание : Соединение по промежуткам
    Продолжительность промежутка : 40 мс. (1, 00 видеокадр)
    Время предзагрузки промежутка : 504 мс.


    Скриншоты для ознакомления




    Онлайн видео Искатели сокровищ



    Искатели сокровищ/Detectorists (2015) HDTVRip (сезон 2, серии 1-7 из 7) KinoRay & Lord32x Studio
    загрузка...
    Рейтинг →
     (голосов: 1, оценка 3/5, голосовать можно 1 раз )

    Другие торренты по теме:

  • Искатели сокровищ / Detectorists (2017) WEBRip [H.264 / 720p-LQ] (сезон 3, серии 1 из 6) Lord32x Studio (обновляемая)
  • Искатели сокровищ / Detectorists (2014) HDTVRip (сезон 1, серии 1-6 из 6) Lord32x
  • Джанет Иванович | Искатели сокровищ (2015) [FB2]


    • Комментарии (0):

      Информация

      Информация

        Посетители, находящиеся в группе Гости, не могут оставлять комментарии в данной новости.

        ↓ Меню




        ↓ Опрос

        Вы добавили сайт в закладки?
        Да
        Нет


        Top 10 за месяц (Фильмы)