.
Авторизация | Регистрация
Хочешь лучшие торренты? Добавь свой email!
Добавить

Торрент скачать бесплатно

» » Морские дьяволы. Смерч. Судьбы (2013) WEBRip (сезон 1, серий 1-14 из 14) торрент скачать бесплатно




    Морские дьяволы. Смерч. Судьбы (2013) WEBRip (сезон 1, серий 1-14 из 14) торрент скачать бесплатно

    Опубликовал: Админ | Дата: 21-03-2016, 04:00 | Просмотров: 90

    Производство: Россия Гамма-Продакшн, Анима фильм
    Жанр: Боевик, Приключения
    Режиссер: Александр Якимчук, Александр Картохин

    Актеры
    Олег Чернов, Дарья Юргенс, Иван Паршин, Антон Гуляев, Владимир Ярош, Дарья Циберкина, Игорь Григорьев , Мария Жиганова, Кирилл Полухин, Серафима Низовская и др...

    Описание

    Смерчи вновь действуют, и вновь — по одному. Новые отдельные фильмы о жизни героев — Бати, Багиры, Кота, Бизона, Физика, Муры и Пригова, в которых каждый отвечает сам за себя — в отпуске, на специальном задании или под прикрытием — словом тогда, когда коллег по Смерчу рядом нет, и надеяться, кроме самих себя, не на кого.

    Продолжительность: ~ 01: 30: 00 серия
    Качество видео: WEBRip
    Видео: Xvid, 720x400 (16: 9), ~2095 kbps
    Аудио: AC3, 2 ch, 192 Kbps, CBR
    Код:

    Общее
    Полное имя : D:Мои фильмыMorskije_d\'javoly_Smerch_Sud\'by_01-14iz14_2013-2014_XviD_WEBRipMorskije_d\'javoly_Smerch_Sud\'by_01_iz_14_2013-2014_WEBRip.avi
    Формат : AVI
    Формат/Информация : Audio Video Interleave
    Размер файла : 1, 45 Гбайт
    Продолжительность : 1 ч. О таком странном сюжете не догадывалась даже ВиаГра. 30 м.
    Общий поток : 2297 Кбит/сек
    Библиотека кодирования : VirtualDub build 35491/release
    Видео
    Идентификатор : 0
    Формат : MPEG-4 Visual
    Профиль формата : Advanced Simple@L5
    Параметр BVOP формата : 2
    Параметр QPel формата : Нет
    Параметр GMC формата : Без точки перехода
    Параметр матрицы формата : Выборочная
    Идентификатор кодека : XVID
    Идентификатор кодека/Подсказка : XviD
    Продолжительность : 1 ч. 30 м.
    Битрейт : 2096 Кбит/сек
    Ширина : 720 пикселей
    Высота : 400 пикселей
    Соотношение сторон : 16:9
    Частота кадров : 25, 000 кадров/сек
    Цветовое пространство : YUV
    Субдискретизация насыщенности : 4:2:0
    Битовая глубина : 8 бит
    Тип развёртки : Прогрессивная
    Метод сжатия : С потерями
    Бит/(Пиксели*Кадры) : 0.291
    Размер потока : 1, 32 Гбайт (91%)
    Библиотека кодирования : XviD 65
    Аудио
    Идентификатор : 1
    Формат : AC-3
    Формат/Информация : Audio Coding 3
    Расширение режима : CM (complete main)
    Параметр Endianness формата : Big
    Идентификатор кодека : 2000
    Продолжительность : 1 ч. 30 м.
    Вид битрейта : Постоянный
    Битрейт : 192 Кбит/сек
    Каналы : 2 канала
    Расположение каналов : Front: L R
    Частота : 48, 0 КГц
    Частота кадров : 31, 250 кадров/сек (1536 spf)
    Метод сжатия : С потерями
    Размер потока : 124 Мбайт (8%)
    Выравнивание : Соединение по промежуткам
    Продолжительность промежутка : 40 мс. (1, 00 видеокадр)
    Время предзагрузки промежутка : 512 мс.


    Скриншоты для ознакомления




    Онлайн видео Морские дьяволы. Смерч. Судьбы (2013) WEBRip (сезон любимого сериала 1, серий 1



    Морские дьяволы. Смерч. Судьбы (2013) WEBRip (сезон 1, серий 1-14 из 14)
    загрузка...
    Рейтинг →
     (голосов: 1, оценка 3/5, голосовать можно 1 раз )

    Другие торренты по теме:

  • Морские дьяволы. Смерч 2 (2014) SATRip (серии 1-35 из 64) [обновляемая] скачать через торрент бесплатно
  • Морские дьяволы. Смерч-3 (2016) SATRip (сезон 3, серии 1-2 из 16) (обновляемая)
  • Морские дьяволы. Смерч. Судьбы (2016) SATRip [H.264] (сезон 2, серия 1-2 из 16) (Обновляемая)
  • Морские дьяволы. Смерч-3 (2015) HDTVRip [H.264 / 720p] [сезон 3, серии 1-12 из 32] [обновляемая]
  • Морские дьяволы. Смерч. Судьбы-2 (2016) HDTVRip [H.264 / 720p-LQ] (сезон 2, серия 1-2 из 16) [Обновляемая]
  • Морские дьяволы. Смерч-3 (2015) HDTVRip [H.264 / 1080i] (сезон 3, серии 1-20 из 32) (обновляемая)
  • Морские дьяволы. Смерч. Судьбы-2 (2016) HDTVRip [H.264 / 1080i] (сезон 2, серия 1-4 из 16) (Обновляемая)
  • Морские дьяволы. Смерч (2015) HDTVRip (Сезон 3, серий 1-32 из 32)


    • Комментарии (0):

      Информация

      Информация

        Посетители, находящиеся в группе Гости, не могут оставлять комментарии в данной новости.

        ↓ Меню




        ↓ Опрос

        Вы добавили сайт в закладки?
        Да
        Нет


        Top 10 за месяц (Фильмы)