.
Авторизация | Регистрация
Хочешь лучшие торренты? Добавь свой email!
Добавить

Торрент скачать бесплатно

» » АББА: фильм / ABBA: The Movie (1977) BDRip [H.264 / 1080р] торрент скачать бесплатно




    АББА: фильм / ABBA: The Movie (1977) BDRip [H.264 / 1080р] торрент скачать бесплатно

    Опубликовал: Админ | Дата: 21-03-2016, 04:00 | Просмотров: 45

    Производство: Швеция
    Жанр: Документальный, драма, комедия, музыка
    Режиссер: Лассе Халльстрём

    Актеры
    Анни-Фрид Люнгстад, Бенни Андерссон, Бьёрн Ульвеус, Агнета Фэльтскуг

    Описание

    Шведская группа АББА проводит гастрольный тур по Австралии, а диск-жокей (Хьюз), работающий на радиостанции, должен взять у них интервью. Фильм охватывает период наивысшей популярности группы, между альбомом 1976 года Arrival и альбомом 1977 года The Album, песни из которых и представлены в виде видеозарисовок.

    Продолжительность: 01: 35: 17
    Качество видео: BDRip 1080р
    Перевод: Многоголосый закадровый, профессиональный
    Язык субтитров: Русский, Английский
    Вид субтитров: Вшитые отключаемые
    Видео: AVC/H.264, 1920х768, ~12.5 Mbps, 24 fps
    Аудио 1: AC3, 2 ch, 384 kbps, 48 kHz, CBR - Русский
    Аудио 2: DTS, 6 ch, 1536 kbps, 48 kHz, CBR - Английский
    Аудио 3: FLAC, 2 ch, ~803 kbps, 48 kHz, CBR - Английский
    Код:

    General
    Unique ID : 171982032030286842896696042045963536236 (0x816288D781AF18B698CA0616B8A4876C)
    Complete name : G:Download_GABBA_The_Movie_1080p.mkv
    Format : Matroska
    Format version : Version 4/Version 2
    File size : 10.1 GiB
    Duration : 1h 35mn
    Overall bit rate mode : Variable
    Overall bit rate : 15.2 Mbps
    Movie name : ABBA: The Movie, 1977
    Encoded date : UTC 2014-11-07 19:24:57
    Writing application : mkvmerge v7.3.0 (\'Nouages\') 64bit built on Oct 22 2014 18:53:34
    Writing library : libebml v1.3.0 + libmatroska v1.4.1
    Attachements : cover.jpg
    DURATION : 01:28:55.167000000
    NUMBER_OF_FRAMES : 535
    NUMBER_OF_BYTES : 23169
    _STATISTICS_WRITING_APP : mkvmerge v7.3.0 (\'Nouages\') 64bit built on Oct 22 2014 18:53:34
    _STATISTICS_WRITING_DATE_UTC : 2014-11-07 19:24:57
    _STATISTICS_TAGS : BPS DURATION NUMBER_OF_FRAMES NUMBER_OF_BYTES
    Video
    ID : 1
    Format : AVC
    Format/Info : Advanced Video Codec
    Format profile :High@L4.1
    Format settings, CABAC : Yes
    Format settings, ReFrames : 4 frames
    Codec ID : V_MPEG4/ISO/AVC
    Duration : 1h 35mn
    Nominal bit rate : 12.5 Mbps
    Width : 1 920 pixels
    Height : 768 pixels
    Display aspect ratio : 2.500
    Frame rate mode : Constant
    Frame rate : 24.000 fps
    Color space : YUV
    Chroma subsampling : 4:2:0
    Bit depth : 8 bits
    Scan type : Progressive
    Bits/(Pixel*Frame) : 0.353
    Title : MPEG-4/AVC 1920x768 24fps 12500kbps [encoded by indigosakura]
    Writing library : x264 core 142 r2479 dd79a61
    Encoding settings : cabac=1/ref=4/deblock=1:-1:-1/analyse=0x3:0x133/me=tesa/subme=11/psy=1/psy_rd=1.00:0.00/mixed_ref=1/me_range=32/chroma_me=1/trellis=2/8x8dct=1/cqm=0/deadzone=21, 11/fast_pskip=0/chroma_qp_offset=-2/threads=12/lookahead_threads=3/sliced_threads=0/nr=0/decimate=1/interlaced=0/bluray_compat=0/constrained_intra=0/bframes=16/b_pyramid=2/b_adapt=2/b_bias=0/direct=3/weightb=1/open_gop=0/weightp=2/keyint=240/keyint_min=24/scenecut=40/intra_refresh=0/rc_lookahead=120/rc=2pass/mbtree=0/bitrate=12500/ratetol=1.0/qcomp=0.60/qpmin=0/qpmax=69/qpstep=4/cplxblur=20.0/qblur=0.5/vbv_maxrate=62500/vbv_bufsize=78125/nal_hrd=none/filler=0/ip_ratio=1.40/pb_ratio=1.20/aq=1:0.90
    Language : English
    Default : Yes
    Forced : No
    Audio #1
    ID : 2
    Format : AC-3
    Format/Info : Audio Coding 3
    Mode extension : CM (complete main)
    Format settings, Endianness : Big
    Codec ID : A_AC3
    Duration : 1h 35mn
    Bit rate mode : Constant
    Bit rate : 384 Kbps
    Channel(s) : 2 channels
    Channel positions : Front: L R
    Sampling rate : 48.0 KHz
    Compression mode : Lossy
    Stream size : 262 MiB (3%)
    Title : (MVO Selena International) AC3 48kHz 2ch 384kbps [restored by indigosakura]
    Language : Russian
    Default : Yes
    Forced : No
    Audio #2
    ID : 3
    Format : DTS
    Format/Info : Digital Theater Systems
    Mode : 16
    Format settings, Endianness : Big
    Codec ID : A_DTS
    Duration : 1h 35mn
    Bit rate mode : Constant
    Bit rate : 1 510 Kbps
    Channel(s) : 6 channels
    Channel positions : Front: L C R, Side: L R, LFE
    Sampling rate : 48.0 KHz
    Bit depth : 24 bits
    Compression mode : Lossy
    Stream size : 1.00 GiB (10%)
    Title : DTS 48kHz 6ch 1536kbps
    Language : English
    Default : No
    Forced : No
    Audio #3
    ID : 4
    Format : FLAC
    Format/Info : Free Lossless Audio Codec
    Codec ID : A_FLAC
    Duration : 1h 35mn
    Bit rate mode : Variable
    Channel(s) : 2 channels
    Sampling rate : 48.0 KHz
    Bit depth : 16 bits
    Title : FLAC 48kHz 2ch 803kbps
    Writing library : libFLAC 1.3.0 (UTC 2013-05-26)
    Language : English
    Default : No
    Forced : No
    Text #1
    ID : 5
    Format : UTF-8
    Codec ID : S_TEXT/UTF8
    Codec ID/Info : UTF-8 Plain Text
    Language : Russian
    Default : No
    Forced : No
    Text #2
    ID : 6
    Format : UTF-8
    Codec ID : S_TEXT/UTF8
    Codec ID/Info : UTF-8 Plain Text
    Language : English
    Default : No
    Forced : No
    Menu
    00:00:00.000 : en:This is gonna be worldwide!
    00:03:41.125 : en:Opening titles
    00:05:56.208 : en:Welcome to Australia
    00:10:18.417 : en:Tiger
    00:18:36.875 : en:Sydney Opera House
    00:25:27.375 : en:2000 miles and a very expensive plane fare away
    00:32:20.042 : en:Can\'t you see I\'m a journalist?
    00:41:58.125 : en:The Name Of The Game
    00:48:05.792 : en:Adelaide
    00:52:53.167 : en:Why Did It Have To Be Me?
    01:03:39.542 : en:Melbourne
    01:12:35.292 : en:Dancing Queen
    01:17:07.667 : en:We want ABBA!
    01:21:33.542 : en:Eagle
    01:29:54.458 : en:Thank You For The Music
    01:33:29.792 : en:Closing titles


    Скриншоты для ознакомления




    Онлайн видео АББА: фильм



    АББА: фильм/ABBA: The Movie (1977) BDRip [H.264/1080р]
    загрузка...
    Рейтинг →
     (голосов: 1, оценка 3/5, голосовать можно 1 раз )

    Другие торренты по теме:

  • Агнета - АББА и далее (2013) SATRip скачать через торрент бесплатно


    • Комментарии (0):

      Информация

      Информация

        Посетители, находящиеся в группе Гости, не могут оставлять комментарии в данной новости.

        ↓ Меню




        ↓ Опрос

        Вы добавили сайт в закладки?
        Да
        Нет


        Top 10 за месяц (Фильмы)