.
Авторизация | Регистрация
Хочешь лучшие торренты? Добавь свой email!
Добавить

Торрент скачать бесплатно

» » Воспламеняющая взглядом (Порождающая огонь) / Firestarter (1984) BDRip [H.264 / 1080p] торрент скачать бесплатно




    Воспламеняющая взглядом (Порождающая огонь) / Firestarter (1984) BDRip [H.264 / 1080p] торрент скачать бесплатно

    Опубликовал: Админ | Дата: 21-03-2016, 04:00 | Просмотров: 39

    Производство: США/Universal Pictures, Dino De Laurentiis Productions
    Жанр: Фантастика, Триллер
    Режиссер: Марк Л. Лестер

    Актеры
    Дэвид Кит, Дрю Бэрримор, Фредди Джонс, Хэзер Локлир, Мартин Шин, Джордж К. Скотт, Арт Карни, Луиза Флетчер, Моузес Ганн, Антонио Фаргас

    Описание

    Чарли МакГи кажется обычной счастливой девочкой восьми лет, пока что-нибудь не разозлит её или не начнёт угрожать её семье. Тогда Чарли меняется: проявляется её унаследованная от родителей смертоносная способность — зажигать взглядом всё, что она пожелает. Чарли не всегда может контролировать свою силу и, возможно, когда она вырастет её могущество будет опасно для всей планеты. Спецслужбы хотят использовать девочку и похищают её, убивая при этом маму Чарли. Они хотят контролировать девочку… или уничтожить. Её отец не в силах спасти дочку, но Чарли сумеет позаботиться о себе сама.

    Возраст: 16+ (зрителям, достигшим 16 лет)
    Рейтинг MPAA: R (лицам до 17 лет обязательно присутствие взрослого)
    Продолжительность: 01: 54: 12
    Качество видео: BDRip H.264/1080p
    Перевод: Профессиональный многоголосый, Профессиональный двухголосый, Авторский
    Язык субтитров: Английский
    Вид субтитров: Вшитые, отключаемые
    Видео: MPEG-4 AVC/H.264, 1920x816 (2, 35: 1), ~9500 kbps, 23, 976 fps, 0.253 b/px
    Аудио #1: AC3, 2 ch, 192 kbps, CBR | Русский, DVO (НТВ+)
    Аудио #2: AC3, 2 ch, 192 kbps, CBR | Русский, DVO (СТС)
    Аудио #3: AC3, 2 ch, 192 kbps, CBR | Русский, DVO (YES)
    Аудио #4: AC3, 2 ch, 192 kbps, CBR | Русский, MVO (ТВ 3)
    Аудио #5: AC3, 2 ch, 192 kbps, CBR | Русский, AVO (А. Гаврилов)
    Аудио #6: AC3, 2 ch, 192 kbps, CBR | Украинский, MVO (1+1)
    Аудио #7: AC3, 2 ch, 192 kbps, CBR | Английский (оригинал)
    Код:
    Общее
    Уникальный идентификатор : 171676196495182286150741883282838937193 (0x8127A1FC5A7AD387A01257631BC25E69)
    Полное имя : C:ФильмыВоспламеняющая взглядом (1984) [BDRip] [1080p]Firestarter (1984) [BDRip] [1080p].mkv
    Формат : Matroska
    Версия формата : Version 4/Version 2
    Размер файла : 8, 65 Гбайт
    Продолжительность : 1 ч. 54 м.
    Общий поток : 10, 8 Мбит/сек
    Название фильма : Firestarter (1984) BDRip [H.264/1080p]
    Дата кодирования : UTC 2016-03-20 04:00:24
    Программа кодирования : mkvmerge v8.9.0 (\'Father Daughter\') 32bit
    Библиотека кодирования : libebml v1.3.3 + libmatroska v1.4.4
    Обложка : Yes
    Attachments : cover.jpg
    Видео
    Идентификатор : 1
    Формат : AVC
    Формат/Информация : Advanced Video Codec
    Профиль формата :High@L4.1
    Параметр CABAC формата : Да
    Параметр ReFrames формата : 5 кадров
    Идентификатор кодека : V_MPEG4/ISO/AVC
    Продолжительность : 1 ч. 54 м.
    Битрейт : 9500 Кбит/сек
    Ширина : 1920 пикселей
    Высота : 816 пикселей
    Соотношение сторон : 2, 35:1
    Режим частоты кадров : Постоянный
    Частота кадров : 23, 976 (24000/1001) кадра/сек
    Цветовое пространство : YUV
    Субдискретизация насыщенности : 4:2:0
    Битовая глубина : 8 бит
    Тип развёртки : Прогрессивная
    Бит/(Пиксели*Кадры) : 0.253
    Размер потока : 7, 58 Гбайт (88%)
    Заголовок : Firestarter (1984) [BDRip] [1080p]
    Библиотека кодирования : x264 core 142 r2431+42 c69a006 tMod [8-bit@4:2:0 X86_64]
    Настройки программы : cabac=1/ref=5/deblock=1:-3:-3/analyse=0x3:0x113/me=umh/subme=11/psy=1/fade_compensate=0.00/psy_rd=1.00:0.20/mixed_ref=1/me_range=32/chroma_me=1/trellis=2/8x8dct=1/cqm=0/deadzone=21, 11/fast_pskip=0/chroma_qp_offset=-3/threads=12/lookahead_threads=2/sliced_threads=0/nr=0/decimate=0/interlaced=0/bluray_compat=0/constrained_intra=0/fgo=0/bframes=9/b_pyramid=2/b_adapt=2/b_bias=0/direct=3/weightb=1/open_gop=0/weightp=2/keyint=240/keyint_min=23/scenecut=40/intra_refresh=0/rc=2pass/mbtree=0/bitrate=9500/ratetol=1.0/qcomp=0.60/qpmin=0:0:0/qpmax=69:69:69/qpstep=4/cplxblur=20.0/qblur=0.5/ip_ratio=1.40/pb_ratio=1.30/aq=4:0.80/aq-sensitivity=10.00/aq-factor=1.00:1.00:1.00/aq2=0/aq3=0
    Default : Да
    Forced : Нет
    Аудио #1
    Идентификатор : 2
    Формат : AC-3
    Формат/Информация : Audio Coding 3
    Расширение режима : CM (complete main)
    Параметр Endianness формата : Big
    Идентификатор кодека : A_AC3
    Продолжительность : 1 ч. 54 м.
    Вид битрейта : Постоянный
    Битрейт : 192 Кбит/сек
    Каналы : 2 канала
    Расположение каналов : Front: L R
    Частота : 48, 0 КГц
    Частота кадров : 31, 250 кадров/сек (1536 spf)
    Метод сжатия : С потерями
    Размер потока : 157 Мбайт (2%)
    Заголовок : DVO (HTB+)
    Язык : Russian
    Default : Нет
    Forced : Нет
    Аудио #2
    Идентификатор : 3
    Формат : AC-3
    Формат/Информация : Audio Coding 3
    Расширение режима : CM (complete main)
    Параметр Endianness формата : Big
    Идентификатор кодека : A_AC3
    Продолжительность : 1 ч. 54 м.
    Вид битрейта : Постоянный
    Битрейт : 192 Кбит/сек
    Каналы : 2 канала
    Расположение каналов : Front: L R
    Частота : 48, 0 КГц
    Частота кадров : 31, 250 кадров/сек (1536 spf)
    Метод сжатия : С потерями
    Размер потока : 157 Мбайт (2%)
    Заголовок : DVO (CTC)
    Язык : Russian
    Default : Нет
    Forced : Нет
    Аудио #3
    Идентификатор : 4
    Формат : AC-3
    Формат/Информация : Audio Coding 3
    Расширение режима : CM (complete main)
    Параметр Endianness формата : Big
    Идентификатор кодека : A_AC3
    Продолжительность : 1 ч. Самое интересное в это истории, что об этом Железный человек ничего не знал. 54 м.
    Вид битрейта : Постоянный
    Битрейт : 192 Кбит/сек
    Каналы : 2 канала
    Расположение каналов : Front: L R
    Частота : 48, 0 КГц
    Частота кадров : 31, 250 кадров/сек (1536 spf)
    Метод сжатия : С потерями
    Размер потока : 157 Мбайт (2%)
    Заголовок : DVO (YES)
    Язык : Russian
    Default : Нет
    Forced : Нет
    Аудио #4
    Идентификатор : 5
    Формат : AC-3
    Формат/Информация : Audio Coding 3
    Расширение режима : CM (complete main)
    Параметр Endianness формата : Big
    Идентификатор кодека : A_AC3
    Продолжительность : 1 ч. 54 м.
    Вид битрейта : Постоянный
    Битрейт : 192 Кбит/сек
    Каналы : 2 канала
    Расположение каналов : Front: L R
    Частота : 48, 0 КГц
    Частота кадров : 31, 250 кадров/сек (1536 spf)
    Метод сжатия : С потерями
    Размер потока : 157 Мбайт (2%)
    Заголовок : MVO (TB 3)
    Язык : Russian
    Default : Да
    Forced : Да
    Аудио #5
    Идентификатор : 6
    Формат : AC-3
    Формат/Информация : Audio Coding 3
    Расширение режима : CM (complete main)
    Параметр Endianness формата : Big
    Идентификатор кодека : A_AC3
    Продолжительность : 1 ч. 54 м.
    Вид битрейта : Постоянный
    Битрейт : 192 Кбит/сек
    Каналы : 2 канала
    Расположение каналов : Front: L R
    Частота : 48, 0 КГц
    Частота кадров : 31, 250 кадров/сек (1536 spf)
    Метод сжатия : С потерями
    Размер потока : 157 Мбайт (2%)
    Заголовок : AVO (Gavrilov)
    Язык : Russian
    Default : Нет
    Forced : Нет
    Аудио #6
    Идентификатор : 7
    Формат : AC-3
    Формат/Информация : Audio Coding 3
    Расширение режима : CM (complete main)
    Параметр Endianness формата : Big
    Идентификатор кодека : A_AC3
    Продолжительность : 1 ч. 54 м.
    Вид битрейта : Постоянный
    Битрейт : 192 Кбит/сек
    Каналы : 2 канала
    Расположение каналов : Front: L R
    Частота : 48, 0 КГц
    Частота кадров : 31, 250 кадров/сек (1536 spf)
    Метод сжатия : С потерями
    Размер потока : 157 Мбайт (2%)
    Заголовок : MVO (1+1)
    Язык : Ukrainian
    Default : Нет
    Forced : Нет
    Аудио #7
    Идентификатор : 8
    Формат : AC-3
    Формат/Информация : Audio Coding 3
    Расширение режима : CM (complete main)
    Параметр Endianness формата : Big
    Идентификатор кодека : A_AC3
    Продолжительность : 1 ч. 54 м.
    Вид битрейта : Постоянный
    Битрейт : 192 Кбит/сек
    Каналы : 2 канала
    Расположение каналов : Front: L R
    Частота : 48, 0 КГц
    Частота кадров : 31, 250 кадров/сек (1536 spf)
    Метод сжатия : С потерями
    Размер потока : 157 Мбайт (2%)
    Язык : English
    Default : Нет
    Forced : Нет
    Текст
    Идентификатор : 9
    Формат : UTF-8
    Идентификатор кодека : S_TEXT/UTF8
    Идентификатор кодека/Информация : UTF-8 Plain Text
    Продолжительность : 1 ч. 48 м.
    Битрейт : 50 бит/сек
    Count of elements : 1282
    Размер потока : 40, 6 Кбайт (0%)
    Язык : English
    Default : Нет
    Forced : Нет
    Меню
    00:00:00.000 : en:Chapter 01
    00:08:08.571 : en:Chapter 02
    00:16:25.609 : en:Chapter 03
    00:22:14.041 : en:Chapter 04
    00:34:44.373 : en:Chapter 05
    00:45:36.191 : en:Chapter 06
    00:54:58.044 : en:Chapter 07
    01:05:13.910 : en:Chapter 08
    01:12:45.652 : en:Chapter 09
    01:21:54.242 : en:Chapter 10
    01:29:14.640 : en:Chapter 11
    01:33:41.282 : en:Chapter 12
    01:36:23.444 : en:Chapter 13
    01:41:37.883 : en:Chapter 14
    01:49:53.461 : en:Chapter 15
    01:51:03.156 : en:Chapter 16

    Скриншоты для ознакомления






    Скриншоты для ознакомления




    Онлайн видео Воспламеняющая взглядом (Порождающая огонь)



    Воспламеняющая взглядом (Порождающая огонь)/Firestarter (1984) BDRip [H.264/1080p]
    загрузка...
    Рейтинг →
     (голосов: 1, оценка 4/5, голосовать можно 1 раз )

    Другие торренты по теме:

  • Mystery Tales 5: Eye of the Fire / Загадочные Истории 5: Воспламеняющая Взглядом (2017) [Ru] (1.0) Unofficial [Collectors Edition / Коллекционное издание]


    • Комментарии (0):

      Информация

      Информация

        Посетители, находящиеся в группе Гости, не могут оставлять комментарии в данной новости.

        ↓ Меню




        ↓ Опрос

        Вы добавили сайт в закладки?
        Да
        Нет


        Top 10 за месяц (Фильмы)