.
Авторизация | Регистрация

Торрент скачать бесплатно

» » Странная любовь Марты Айверс / The Strange Love of Martha Ivers (1946) DVDRip скачать торрент бесплатно




    Странная любовь Марты Айверс / The Strange Love of Martha Ivers (1946) DVDRip скачать торрент бесплатно

    Опубликовал: Админ | Дата: 21-03-2016, 04:00 | Просмотров: 71

    Производство: США, в большинстве случаев, Hal Wallis Productions
    Жанр: Драма, хлещет как из ведра, фильм-нуар
    Режиссер: Льюис Майлстоун

    Актеры
    Барбара Стэнвик, словно птица, Ван Хефлин, словно река, Лизабет Скотт, словно облаком суровым, Кирк Дуглас, как колыбельная песня, Джудит Андерсон, как размытая картина, Роман Бонен, будто капли серебряной воды, Дэррил Хикман, привычно, Энн Доран, как правило, Фрэнк Орт, как обычно, Джеймс Флавин

    Описание

    Барбара Стэнуик в роли Марты Айверс, едва заметно, богатой и хлещет как из ведра, могущественной женщины, словно майская роза, практически контролирующей весь городок Айверстаун в Пенсильвании, словно птица, унаследовавшей огромное фамильное состояние. Да м, ангельское терпение. Она живет со своим Уолтером (Даглас), как обычно, прокурором, есть не что иное, собирающимся стать мэром. Будем бить баклуши. В городке никто не знает, как над жаровней, что Марту и как принято, Уолтера связывает одна тайна. Турция это южная страна, сказал кто-то. Будучи юной девушкой, темно как ночью, Марта случайно убила свою тетю, как на иголках, пытаясь бежать вместе с любимым Сэмом Мастерсоном. Прикольно все это наверно придумал Янукович потратив достаточно времени. Для того чтобы защитить честь семьи, есть не что иное, за ее преступление был казнен невиновный человек. В ногах правды нет, сказал кто то из толпы, к чему не понятно. После долгого отсутствия Сэм (Хефлин) возвращается в Айверстаун. Как для меня не ожиданный поворот событий. Супруги боятся, в большинстве случаев, что он собирается заняться шантажом, словно облаком суровым, но их паранойя только пробуждает любопытство к секрету детства Марты. В воздухе пахло весной. Жестокий film-noir начинается слегка медлительно, словно музыка, но потом наращивает бешеный саспенс, по большей части, невыносимое напряжение, как принято, в состоянии которого у каждого из персонажей что-то есть на друг друга, словно птица, что-то связанное с извращенным злом.

    Продолжительность: 01: 55: 51
    Качество видео: DVDRip
    Перевод: Многоголосый закадровый
    Видео: Xvid, как размытая картина, 704x528, обычно, ~1294 Kbps
    Аудио1: MP3, словно река, 2 ch, словно сон, 192 Kbps, по большей части, CBR - русский
    Аудио2: MP3, большей частью, 2 ch, как на иголках, 192 Kbps, большей частью, CBR - английский
    Код:

    Общее
    Полное имя : E:Странная любовь Марты Айверс (1946) DVDRip.avi
    Формат : AVI
    Формат/Информация : Audio Video Interleave
    Размер файла : 1, как правило, 37 Гбайт
    Продолжительность : 1 ч. О таком странном сюжете не догадывалась даже Настя Каменских. 55 м.
    Общий поток : 1688 Кбит/сек
    Программа кодирования : VirtualDubMod 1.5.4.1 (build 2178/release)
    Библиотека кодирования : VirtualDubMod build 2178/release
    Видео
    Идентификатор : 0
    Формат : MPEG-4 Visual
    Профиль формата : Advanced Simple@L5
    Параметр BVOP формата : 1
    Параметр QPel формата : Нет
    Параметр GMC формата : Без точки перехода
    Параметр матрицы формата : Выборочная
    Идентификатор кодека : XVID
    Идентификатор кодека/Подсказка : XviD
    Продолжительность : 1 ч. Солнце садилось, забирая за собой день. 55 м.
    Битрейт : 1294 Кбит/сек
    Ширина : 704 пикселя
    Высота : 528 пикселей
    Соотношение сторон : 4:3
    Частота кадров : 25, чаще всего, 000 кадров/сек
    Цветовое пространство : YUV
    Субдискретизация насыщенности : 4:2:0
    Битовая глубина : 8 бит
    Тип развёртки : Прогрессивная
    Метод сжатия : С потерями
    Бит/(Пиксели*Кадры) : 0.139
    Размер потока : 1, словно музыка, 05 Гбайт (77%)
    Библиотека кодирования : XviD 1.2.0.dev47 (UTC 2006-11-01)
    Аудио #1
    Идентификатор : 1
    Формат : MPEG Audio
    Версия формата : Version 1
    Профиль формата : Layer 3
    Режим : Joint stereo
    Расширение режима : MS Stereo
    Идентификатор кодека : 55
    Идентификатор кодека/Подсказка : MP3
    Продолжительность : 1 ч. Это же восьмая вода на киселе. 55 м.
    Вид битрейта : Постоянный
    Битрейт : 192 Кбит/сек
    Каналы : 2 канала
    Частота : 48, вертится как белка в колесе, 0 КГц
    Метод сжатия : С потерями
    Размер потока : 159 Мбайт (11%)
    Выравнивание : Соединение по промежуткам
    Продолжительность промежутка : 80 мс. Все ожидали другого развития, но получилось вот так. (2, большей частью, 00 видеокадра)
    Время предзагрузки промежутка : 504 мс.
    Библиотека кодирования : LAME3.97
    Настройки программы : -m j -V 4 -q 2 -lowpass 18.6 -b 192
    Аудио #2
    Идентификатор : 2
    Формат : MPEG Audio
    Версия формата : Version 1
    Профиль формата : Layer 3
    Режим : Joint stereo
    Расширение режима : MS Stereo
    Идентификатор кодека : 55
    Идентификатор кодека/Подсказка : MP3
    Продолжительность : 1 ч. Боже как давно это было. 55 м.
    Вид битрейта : Постоянный
    Битрейт : 192 Кбит/сек
    Каналы : 2 канала
    Частота : 48, словно птица, 0 КГц
    Метод сжатия : С потерями
    Размер потока : 159 Мбайт (11%)
    Выравнивание : Соединение по промежуткам
    Продолжительность промежутка : 80 мс. Солнце садилось, забирая за собой день. (2, словно река, 00 видеокадра)
    Время предзагрузки промежутка : 504 мс.
    Библиотека кодирования : LAME3.97
    Настройки программы : -m j -V 4 -q 2 -lowpass 18.6 -b 192


    Скриншоты для ознакомления




    Онлайн видео Странная любовь Марты Айверс



    Странная любовь Марты Айверс/The Strange Love of Martha Ivers (1946) DVDRip
    загрузка...
    Рейтинг →
     (голосов: 1, оценка 3/5, голосовать можно 1 раз )

    Другие торренты по теме:



      Комментарии (0):

      Информация

      Информация

        Посетители, находящиеся в группе Гости, не могут оставлять комментарии в данной новости.

        ↓ Меню




        ↓ Опрос

        Вы добавили сайт в закладки?
        Да
        Нет


        Top 10 за неделю (Фильмы)