.
Авторизация | Регистрация
Хочешь лучшие торренты? Добавь свой email!
Добавить

Торрент скачать бесплатно

» » Родственнички (2015) SATRip (сезон 1, серии 1-4 из 8) (обновляемая) торрент скачать бесплатно




    Родственнички (2015) SATRip (сезон 1, серии 1-4 из 8) (обновляемая) торрент скачать бесплатно

    Опубликовал: Админ | Дата: 20-03-2016, 04:03 | Просмотров: 34

    Производство: Студия Квартал 95
    Жанр: Комедия
    Режиссер: Андрей Яковлев

    Актеры
    Александр Феклистов, Дмитрий Суржиков, Джемал Тетруашвили, Вера Кобзарь, Екатерина Кистень, Олеся Жураковская

    Описание

    Глава семейства - Михаил Иванович, заслуженный пенсионер, живет один в загородном доме. Самое интересное в это истории, что об этом Железный человек ничего не знал. Своих уже взрослых детей он видит крайне редко. И вот, в один из таких редких случаев на его 67-летие в гости приезжают сыновья Игорь и Сергей со своими женами. На дне рождения Михаил Иванович случайно узнает, что братья друг с другом в ссоре и уже несколько лет просто разыгрывают перед ним хорошие отношения. Главный герой, пытаясь разобраться в причинах разногласий и примирить своих детей, хитростями удерживает сыновей в родительском доме.....
    Релиз от: simkanetua
    Продолжительность: ~ 00: 51: 00 серия
    Качество видео: SATRip
    Перевод: Не требуется
    Субтитры: Отсутствуют
    Видео: MPEG4, XviD, 720x400 (16: 9), 25.000 fps, 1 550 Kbps (0.215 bit/pixel)
    Аудио: MP3, 48.0 KHz, 2 ch, 192 Kbps, CBR
    Код:
    Формат : AVI
    Формат/Информация : Audio Video Interleave
    Размер файла : 640 Мбайт
    Продолжительность : 51 м.
    Общий поток : 1752 Кбит/сек
    Программа кодирования : VirtualDubModRus 1.5.10.2 (build 2542/release)
    Библиотека кодирования : VirtualDubMod build 2542/release
    Видео
    Идентификатор : 0
    Формат : MPEG-4 Visual
    Профиль формата : Advanced Simple@L5
    Параметр BVOP формата : 1
    Параметр QPel формата : Нет
    Параметр GMC формата : Без точки перехода
    Параметр матрицы формата : Default (MPEG)
    Идентификатор кодека : XVID
    Идентификатор кодека/Подсказка : XviD
    Продолжительность : 51 м.
    Битрейт : 1550 Кбит/сек
    Ширина : 720 пикселей
    Высота : 400 пикселей
    Соотношение сторон : 16:9
    Частота кадров : 25, 000 кадров/сек
    Цветовое пространство : YUV
    Субдискретизация насыщенности : 4:2:0
    Битовая глубина : 8 бит
    Тип развёртки : Прогрессивная
    Метод сжатия : С потерями
    Бит/(Пиксели*Кадры) : 0.215
    Размер потока : 566 Мбайт (88%)
    Библиотека кодирования : XviD 1.2.1 (UTC 2008-12-04)
    Аудио
    Идентификатор : 1
    Формат : MPEG Audio
    Версия формата : Version 1
    Профиль формата : Layer 3
    Режим : Joint stereo
    Расширение режима : MS Stereo
    Идентификатор кодека : 55
    Идентификатор кодека/Подсказка : MP3
    Продолжительность : 51 м.
    Вид битрейта : Постоянный
    Битрейт : 192 Кбит/сек
    Каналы : 2 канала
    Частота : 48, 0 КГц
    Метод сжатия : С потерями
    Размер потока : 70, 1 Мбайт (11%)
    Выравнивание : Соединение по промежуткам
    Продолжительность промежутка : 40 мс. (1, 00 видеокадр)
    Время предзагрузки промежутка : 504 мс.
    Библиотека кодирования : LAME3.99r
    Настройки программы : -m j -V 4 -q 2 -lowpass 18.6 -b 192


    Скриншоты для ознакомления




    Онлайн видео Родственнички (2015) SATRip (сезон любимого сериала 1, серии 1



    Родственнички (2015) SATRip (сезон 1, серии 1-4 из 8) (обновляемая)
    загрузка...
    Рейтинг →
     (голосов: 1, оценка 5/5, голосовать можно 1 раз )

    Другие торренты по теме:

  • Родственнички (2016) WEB-DLRip (сезон 1, серии 1- из 8) (обновляемая)
  • Родственнички (2016) WEB-DLRip [H.264 / 720p-LQ] (сезон 1, серии 1-4 из 8) (обновляемая)
  • Родственнички (2016) WEB-DLRip [H.264 / 1080p-LQ] (сезон 1, серии 1-4 из 8) (обновляемая)


    • Комментарии (0):

      Информация

      Информация

        Посетители, находящиеся в группе Гости, не могут оставлять комментарии в данной новости.

        ↓ Меню




        ↓ Опрос

        Вы добавили сайт в закладки?
        Да
        Нет


        Top 10 за месяц (Фильмы)