.
Авторизация | Регистрация
Хочешь лучшие торренты? Добавь свой email!
Добавить

Торрент скачать бесплатно

» » Американцы / The Americans (2016) WEB-DL [H.264 / 720p-LQ] (сезон 4, серии 1 из 13) NewStudio (обновляемая) торрент скачать бесплатно




    Американцы / The Americans (2016) WEB-DL [H.264 / 720p-LQ] (сезон 4, серии 1 из 13) NewStudio (обновляемая) торрент скачать бесплатно

    Опубликовал: Админ | Дата: 20-03-2016, 04:03 | Просмотров: 840

    Производство: США, DreamWorks Television
    Жанр: триллер, драма, криминал, детектив
    Режиссер: Адам Аркин, Гэвин О’Коннор, Томас Шламми

    Актеры
    Аннет Махендру, Холли Тейлор, Роман Блат, Пол Джуд Летерски, Мэттью Риз, Кери Рассел, Марми Косико и др.

    Описание

    История о сложном браке двух агентов КГБ, которые под видом американцев заселяются в пригород Вашингтона сразу после того, как президентом избирают Рейгана. Подставной брак Филлипа и Элизабет с каждым днем становится все более настоящим и эмоциональным, несмотря на эскалацию холодной войны и опасные отношения, которые они должны поддерживать с сетью шпионов и темно как ночью информаторов. Бесплатный сыр, сказал кто то из толпы, к чему не понятно. Напряжение нарастает, когда появляется новый сосед Стэн, агент ФБР, который работает в контрразведке.

    Дата мировой премьеры: 16 марта 2016
    Продолжительность: ~00: 50: 00 серия
    Качество видео: WEB-DL 720p
    Перевод: Многоголосый закадровый, профессиональный -NewStudio
    Автор перевода: Weirdie
    Реклама: присутствуют голосовые вставки рекламы
    Видео: AVC/H.264, 1280x720 (16: 9), ~4041 kb/s
    Аудио Rus: AC3, 48, 0 kHz, 6 ch, 384 kb/s - многоголосый закадровый
    Аудио Eng: AC3, 48, 0 kHz, 6 ch, 384 kb/s - оригинал
    General
    Unique ID : 187466935354541856984635317520779730736 (0x8D08D1852A28C60B9A8AABF0E6085F30)
    Complete name : The Americans S04 NewStudioThe.Americans.s04e01.WEBDL.720p.NewStudio.TV.mkv
    Format : Matroska
    Format version : Version 4/Version 2
    File size : 1.66 GiB
    Duration : 49mn 15s
    Overall bit rate : 4 811 Kbps
    Encoded date : UTC 2016-03-17 21: 08: 19
    Writing application : mkvmerge v8.2.0 (\'World of Adventure\') 64bit
    Writing library : libebml v1.3.1 + libmatroska v1.4.2
    Cover : Yes
    Attachments : small_cover.jpg/cover.jpg/cover_land.jpg/small_cover_land.jpg
    Video
    ID : 1
    Format : AVC
    Format/Info : Advanced Video Codec
    Format profile : High@L3.1
    Format settings, CABAC : No
    Format settings, ReFrames : 2 frames
    Codec ID : V_MPEG4/ISO/AVC
    Duration : 49mn 15s
    Bit rate : 4 041 Kbps
    Width : 1 280 pixels
    Height : 720 pixels
    Display aspect ratio : 16: 9
    Frame rate mode : Constant
    Frame rate : 23.976 (24000/1001) fps
    Color space : YUV
    Chroma subsampling : 4: 2: 0
    Bit depth : 8 bits
    Scan type : Progressive
    Bits/(Pixel*Frame) : 0.183
    Stream size : 1.39 GiB (84%)
    Language : English
    Default : Yes
    Forced : No
    Color range : Limited
    Color primaries : BT.709
    Transfer characteristics : BT.709
    Matrix coefficients : BT.709
    Audio #1
    ID : 2
    Format : AC-3
    Format/Info : Audio Coding 3
    Mode extension : CM (complete main)
    Format settings, Endianness : Big
    Codec ID : A_AC3
    Duration : 49mn 15s
    Bit rate mode : Constant
    Bit rate : 384 Kbps
    Channel(s) : 6 channels
    Channel positions : Front: L C R, Side: L R, LFE
    Sampling rate : 48.0 KHz
    Frame rate : 31.250 fps (1536 spf)
    Compression mode : Lossy
    Stream size : 135 MiB (8%)
    Language : Russian
    Default : Yes
    Forced : Yes
    Audio #2
    ID : 3
    Format : AC-3
    Format/Info : Audio Coding 3
    Mode extension : CM (complete main)
    Format settings, Endianness : Big
    Codec ID : A_AC3
    Duration : 49mn 15s
    Bit rate mode : Constant
    Bit rate : 384 Kbps
    Channel(s) : 6 channels
    Channel positions : Front: L C R, Side: L R, LFE
    Sampling rate : 48.0 KHz
    Frame rate : 31.250 fps (1536 spf)
    Compression mode : Lossy
    Stream size : 135 MiB (8%)
    Language : English
    Default : No
    Forced : No


    Скриншоты для ознакомления




    Онлайн видео Американцы



    Американцы/The Americans (2016) WEB-DL [H.264/720p-LQ] (сезон 4, серии 1 из 13) NewStudio (обновляемая)
    загрузка...
    Рейтинг →
     (голосов: 1, оценка 4/5, голосовать можно 1 раз )

    Другие торренты по теме:

  • Американцы / The Americans (2015) WEBDLRip (сезон 3, серии 01 из 13) (NewStudio) (обновляемая)
  • Американцы / The Americans (2015) WEB-DL [H.264 / 720p-LQ] (сезон 3, серии 1 из 13) NewStudio (обновляемая) скачать через торрент бесплатно
  • Американцы / The Americans (2016) WEB-DL [H.264 / 1080p] (сезон 4, серии 1-2 из 13) NewStudio (обновляемая)
  • Американцы / The Americans (2016) WEB-DLRip (сезон 4, серии 1-3 из 13) NewStudio (обновляемая)
  • Мои дорогие американцы / My Fellow Americans (1996) WEB-DL [H.264 / 1080p-LQ]
  • Американцы / The Americans (2017) WEB-DLRip (сезон 5, серии 1 из 13) NewStudio (обновляемая)


    • Комментарии (0):

      Информация

      Информация

        Посетители, находящиеся в группе Гости, не могут оставлять комментарии в данной новости.

        ↓ Меню




        ↓ Опрос

        Вы добавили сайт в закладки?
        Да
        Нет


        Top 10 за месяц (Фильмы)