.
Авторизация | Регистрация
Хочешь лучшие торренты? Добавь свой email!
Добавить

Торрент скачать бесплатно

» » Родственнички (2016) WEB-DLRip [H.264 / 720p-LQ] (сезон 1, серии 1-4 из 8) (обновляемая) торрент скачать бесплатно




    Родственнички (2016) WEB-DLRip [H.264 / 720p-LQ] (сезон 1, серии 1-4 из 8) (обновляемая) торрент скачать бесплатно

    Опубликовал: Админ | Дата: 20-03-2016, 04:03 | Просмотров: 36

    Производство: Украина/Студия Квартал 95
    Жанр: комедия
    Режиссер: Андрей Яковлев

    Актеры
    Александр Феклистов, Дмитрий Суржиков, Джемал Тетруашвили, Вера Кобзарь, Екатерина Кистень, Олеся Жураковская и др.

    Описание

    Глава семейства - Михаил Иванович, заслуженный пенсионер, живет один в загородном доме. Своих уже взрослых детей он видит крайне редко. Благодатная почва, сказал кто то из толпы, к чему не понятно. И вот, в один из таких редких случаев на его 67-летие в гости приезжают сыновья Игорь и Сергей со своими женами. На дне рождения Михаил Иванович случайно узнает, что братья друг с другом в ссоре и уже несколько лет просто разыгрывают перед ним хорошие отношения. Главный герой, пытаясь разобраться в причинах разногласий и примирить своих детей, хитростями удерживает сыновей в родительском доме.....
    Продолжительность: ~00: 52: 00 серия
    Качество видео: WEB-DLRip
    Видео: AVC/H.264, 1280x720 (16: 9), ~1800 Kbps
    Аудио: AC3, 2 ch, 192 Kbps, CBR
    Код:
    Общее
    Уникальный идентификатор : 173539706565802892544296548027092998068 (0x828E8820366D83EDB9119AD459B897B4)
    Полное имя : F:DOWNLOADSРодственнички (2016) WEB-DLRip 720Родственнички - 01 серия.mkv
    Формат : Matroska
    Версия формата : Version 2
    Размер файла : 738 Мбайт
    Продолжительность : 51 м.
    Режим общего битрейта : Переменный
    Общий поток : 1998 Кбит/сек
    Дата кодирования : UTC 2016-03-19 18:14:50
    Программа кодирования : mkvmerge v7.8.0 (\'River Man\') 32bit built on Apr 3 2015 12:11:22
    Библиотека кодирования : libebml v1.3.1 + libmatroska v1.4.2
    Видео
    Идентификатор : 1
    Формат : AVC
    Формат/Информация : Advanced Video Codec
    Профиль формата :High@L4.1
    Параметр CABAC формата : Да
    Параметр ReFrames формата : 3 кадра
    Идентификатор кодека : V_MPEG4/ISO/AVC
    Продолжительность : 51 м.
    Вид битрейта : Переменный
    Битрейт : 1800 Кбит/сек
    Максимальный битрейт : 40, 0 Мбит/сек
    Ширина : 1280 пикселей
    Высота : 720 пикселей
    Соотношение сторон : 16:9
    Режим частоты кадров : Постоянный
    Частота кадров : 25, 000 кадров/сек
    Цветовое пространство : YUV
    Субдискретизация насыщенности : 4:2:0
    Битовая глубина : 8 бит
    Тип развёртки : Прогрессивная
    Бит/(Пиксели*Кадры) : 0.078
    Размер потока : 652 Мбайт (88%)
    Библиотека кодирования : x264 core 142 r2389 956c8d8
    Настройки программы : cabac=1/ref=3/deblock=1:0:0/analyse=0x3:0x133/me=umh/subme=7/psy=1/psy_rd=1.00:0.00/mixed_ref=1/me_range=32/chroma_me=1/trellis=2/8x8dct=1/cqm=0/deadzone=21, 11/fast_pskip=1/chroma_qp_offset=-2/threads=12/lookahead_threads=2/sliced_threads=0/nr=0/decimate=1/interlaced=0/bluray_compat=0/constrained_intra=0/bframes=0/weightp=0/keyint=75/keyint_min=26/scenecut=40/intra_refresh=0/rc_lookahead=50/rc=2pass/mbtree=0/bitrate=1800/ratetol=1.0/qcomp=0.20/qpmin=10/qpmax=51/qpstep=4/cplxblur=20.0/qblur=0.5/vbv_maxrate=2000/vbv_bufsize=2000/nal_hrd=none/filler=0/ip_ratio=1.40/aq=1:1.0
    Default : Да
    Forced : Нет
    Цветовой диапазон : Limited
    Основные цвета : BT.709
    Характеристики трансфера : BT.709
    Коэффициенты матрицы : BT.709
    Аудио
    Идентификатор : 2
    Формат : AC-3
    Формат/Информация : Audio Coding 3
    Расширение режима : CM (complete main)
    Параметр Endianness формата : Big
    Идентификатор кодека : A_AC3
    Продолжительность : 51 м.
    Вид битрейта : Постоянный
    Битрейт : 192 Кбит/сек
    Каналы : 2 канала
    Расположение каналов : Front: L R
    Частота : 44, 1 КГц
    Метод сжатия : С потерями
    Размер потока : 70, 9 Мбайт (10%)
    Default : Да
    Forced : Нет


    Скриншоты для ознакомления




    Онлайн видео Родственнички (2016) WEB-DLRip [H.264



    Родственнички (2016) WEB-DLRip [H.264/720p-LQ] (сезон 1, серии 1-4 из 8) (обновляемая)
    загрузка...
    Рейтинг →
     (голосов: 1, оценка 4/5, голосовать можно 1 раз )

    Другие торренты по теме:

  • Родственнички (2016) WEB-DLRip (сезон 1, серии 1- из 8) (обновляемая)
  • Родственнички (2016) WEB-DLRip [H.264 / 1080p-LQ] (сезон 1, серии 1-4 из 8) (обновляемая)


    • Комментарии (0):

      Информация

      Информация

        Посетители, находящиеся в группе Гости, не могут оставлять комментарии в данной новости.

        ↓ Меню




        ↓ Опрос

        Вы добавили сайт в закладки?
        Да
        Нет


        Top 10 за месяц (Фильмы)