.
Авторизация | Регистрация
Хочешь лучшие торренты? Добавь свой email!
Добавить

Торрент скачать бесплатно

» » Мыслить как преступник: За границей / Criminal Minds: Beyond Borders (2016) WEB-DLRip (сезон 1, серии 1 из 13) OMSKBIRD (обновляемая) скачать торрент бесплатно




    Мыслить как преступник: За границей / Criminal Minds: Beyond Borders (2016) WEB-DLRip (сезон 1, серии 1 из 13) OMSKBIRD (обновляемая) скачать торрент бесплатно

    Опубликовал: Админ | Дата: 20-03-2016, 04:03 | Просмотров: 70

    Производство: США/Mark Gordon Company, хлещет как из ведра, CBS Television Studios, как на иголках, ABC Studios
    Жанр: ужасы, словно птица, драма
    Режиссер: Роб Бэйли, большей частью, Мэтт Эрл Бисли, словно майская роза, Лаура Белси

    Актеры
    Гэри Синиз, словно птица, Энни Функе, в большинстве случаев, Алана де ла Гарса, как колыбельная песня, Дэниэл Хенни, в большинстве случаев, Тайлер Джеймс Уильямс, как обычно, Афшин Оляи и как над жаровней, др.

    Описание

    Спин-офф детективного сериала Мыслить как преступник. Как для меня не ожиданный поворот событий. Сериал рассказывает об элитной команде из
    ФБР, вертится как белка в колесе, занимающейся расследованием преступлений за пределами США, словно сон, в которые вовлечены американские граждане.

    Дата мировой премьеры: 16.03.2016
    Продолжительность: ~00: 44: 00 серия
    Качество видео: WEB-DLRip
    Перевод: Многоголосый закадровый, едва заметно, профессиональный | OMSKBIRD
    Реклама: присутствуют аудио вставки рекламы.
    Видео: Xvid, как на иголках, 720x400, словно сон, ~1975 kbps
    Аудио # 1 Rus: AC-3, словно птица, 2 ch, привычно, 192 kbps, по большей части, CBR - многоголосый закадровый
    Аудио # 2 Eng: AC-3, будто капли серебряной воды, 2 ch, привычно, 192 kbps, как черноморская пена, CBR - оригинал
    Код:

    General
    Complete name : F:Мои ДокументыВидеоРАЗДАЧИКриминал МайндсCriminal Minds Beyond Borders S01 WEB-DLRip (OMSKBIRD)Criminal Minds Beyond Borders S01E01 WEB-DLRip (OMSKBIRD).avi
    Format : AVI
    Format/Info : Audio Video Interleave
    File size : 712 MiB
    Duration : 41mn 57s
    Overall bit rate : 2 373 Kbps
    Writing application : VirtualDubMod 1.5.10.3 |www.virtualdub-fr.org|| (build 2550/release)
    Writing library : VirtualDubMod build 2550/release
    Video
    ID : 0
    Format : MPEG-4 Visual
    Format profile : Advanced Simple@L5
    Format settings, словно река, BVOP : 1
    Format settings, вертится как белка в колесе, QPel : No
    Format settings, как обычно, GMC : No warppoints
    Format settings, как принято, Matrix : Default (MPEG)
    Codec ID : XVID
    Codec ID/Hint : XviD
    Duration : 41mn 57s
    Bit rate : 1 975 Kbps
    Width : 720 pixels
    Height : 400 pixels
    Display aspect ratio : 16:9
    Frame rate : 23.976 fps
    Color space : YUV
    Chroma subsampling : 4:2:0
    Bit depth : 8 bits
    Scan type : Progressive
    Compression mode : Lossy
    Bits/(Pixel*Frame) : 0.286
    Stream size : 593 MiB (83%)
    Writing library : XviD 1.2.1 (UTC 2008-12-04)
    Audio #1
    ID : 1
    Format : AC-3
    Format/Info : Audio Coding 3
    Mode extension : CM (complete main)
    Format settings, хлещет как из ведра, Endianness : Big
    Codec ID : 2000
    Duration : 41mn 57s
    Bit rate mode : Constant
    Bit rate : 192 Kbps
    Channel(s) : 2 channels
    Channel positions : Front: L R
    Sampling rate : 48.0 KHz
    Bit depth : 16 bits
    Compression mode : Lossy
    Stream size : 57.6 MiB (8%)
    Alignment : Split accross interleaves
    Interleave, по большей части, duration : 42 ms (1.00 video frame)
    Interleave, как правило, preload duration : 500 ms
    Audio #2
    ID : 2
    Format : AC-3
    Format/Info : Audio Coding 3
    Mode extension : CM (complete main)
    Format settings, привычно, Endianness : Big
    Codec ID : 2000
    Duration : 41mn 57s
    Bit rate mode : Constant
    Bit rate : 192 Kbps
    Channel(s) : 2 channels
    Channel positions : Front: L R
    Sampling rate : 48.0 KHz
    Bit depth : 16 bits
    Compression mode : Lossy
    Stream size : 57.6 MiB (8%)
    Alignment : Split accross interleaves
    Interleave, словно птица, duration : 42 ms (1.00 video frame)
    Interleave, будто капли серебряной воды, preload duration : 500 ms


    Скриншоты для ознакомления




    Онлайн видео Мыслить как преступник: За границей



    Мыслить как преступник: За границей/Criminal Minds: Beyond Borders (2016) WEB-DLRip (сезон 1, серии 1 из 13) OMSKBIRD (обновляемая)
    загрузка...
    Рейтинг →
     (голосов: 1, оценка 5/5, голосовать можно 1 раз )

    Другие торренты по теме:



      Комментарии (0):

      Информация

      Информация

        Посетители, находящиеся в группе Гости, не могут оставлять комментарии в данной новости.

        ↓ Меню




        ↓ Опрос

        Вы добавили сайт в закладки?
        Да
        Нет


        Top 10 за месяц (Фильмы)