.
Авторизация | Регистрация
Хочешь лучшие торренты? Добавь свой email!
Добавить

Торрент скачать бесплатно

» » Касл / Castle (2015) WEB-DLRip (сезон 8, серии 1-12 из 22) FOX Life (обновляемая) торрент скачать бесплатно




    Касл / Castle (2015) WEB-DLRip (сезон 8, серии 1-12 из 22) FOX Life (обновляемая) торрент скачать бесплатно

    Опубликовал: Админ | Дата: 20-03-2016, 04:02 | Просмотров: 42

    Производство: США
    Жанр: Детектив, Комедия, Криминал, Драма
    Режиссер: Роб Боумен, Джон Терлески, Брайан Спайсер

    Актеры
    Нэйтан Филлион, Стана Катик, Сьюзэн Салливан, Молли С. Время пошло, сказал кто то из толпы, к чему не понятно. Куинн, Джон Уэртас, Тамала Джонс, Шимус Девер, Рубен Сантьяго-Хадсон, Пенни Джонсон, Ари Гросс и др.

    Описание

    Знакомьтесь, Ричард Касл — успешный писатель детективного жанра, который в последней книге убил своего главного героя. Но кажется, что одному из почитателей его таланта книги понравились слегка чересчур — в городе появляется подражатель, совершающий преступления, с убийственной точностью копируя способы, которыми Касл убивал в своих произведениях. О таком странном сюжете не догадывалась даже Шакира. И вот наш изнывающий от скуки писатель был вызван в отдел убийств Нью-йоркской полиции, чтобы помочь найти убийцу.

    Продолжительность: ~ 00: 45: 00 серия
    Качество видео: WEB-DLRip
    Перевод: Профессиональный (многоголосый, закадровый) - FOX Life
    Видео: Xvid, 720x416, ~1725 Kbps
    Аудио RUS: AC3, 2 ch, 192 Kbps, CBR
    Аудио ENG: AC3, 2 ch, 192 Kbps, CBR
    Код:

    Общее
    Формат : AVI
    Формат/Информация : Audio Video Interleave
    Размер файла : 652 Мбайт
    Продолжительность : 42 м.
    Общий поток : 2120 Кбит/сек
    Программа кодирования : VirtualDubMod 1.5.10.2 (build 2540/release)
    Библиотека кодирования : VirtualDubMod build 2540/release
    Видео
    Идентификатор : 0
    Формат : MPEG-4 Visual
    Профиль формата : Advanced Simple@L5
    Параметр BVOP формата : 2
    Параметр QPel формата : Нет
    Параметр GMC формата : Без точки перехода
    Параметр матрицы формата : Default (MPEG)
    Идентификатор кодека : XVID
    Идентификатор кодека/Подсказка : XviD
    Продолжительность : 42 м.
    Битрейт : 1725 Кбит/сек
    Ширина : 720 пикселей
    Высота : 416 пикселей
    Соотношение сторон : 16:9
    Частота кадров : 23, 976 (24000/1001) кадра/сек
    Цветовое пространство : YUV
    Субдискретизация насыщенности : 4:2:0
    Битовая глубина : 8 бит
    Тип развёртки : Прогрессивная
    Метод сжатия : С потерями
    Бит/(Пиксели*Кадры) : 0.240
    Размер потока : 530 Мбайт (81%)
    Библиотека кодирования : XviD 64
    Аудио #1
    Идентификатор : 1
    Формат : AC-3
    Формат/Информация : Audio Coding 3
    Расширение режима : CM (complete main)
    Параметр Endianness формата : Big
    Идентификатор кодека : 2000
    Продолжительность : 42 м.
    Вид битрейта : Постоянный
    Битрейт : 192 Кбит/сек
    Каналы : 2 канала
    Расположение каналов : Front: L R
    Частота : 48, 0 КГц
    Частота кадров : 31, 250 кадров/сек (1536 spf)
    Метод сжатия : С потерями
    Размер потока : 59, 0 Мбайт (9%)
    Выравнивание : Разделение по промежуткам
    Продолжительность промежутка : 64 мс. (1, 53 видеокадра)
    Время предзагрузки промежутка : 500 мс.
    Аудио #2
    Идентификатор : 2
    Формат : AC-3
    Формат/Информация : Audio Coding 3
    Расширение режима : CM (complete main)
    Параметр Endianness формата : Big
    Идентификатор кодека : 2000
    Продолжительность : 42 м.
    Вид битрейта : Постоянный
    Битрейт : 192 Кбит/сек
    Каналы : 2 канала
    Расположение каналов : Front: L R
    Частота : 48, 0 КГц
    Частота кадров : 31, 250 кадров/сек (1536 spf)
    Метод сжатия : С потерями
    Размер потока : 59, 0 Мбайт (9%)
    Выравнивание : Разделение по промежуткам
    Продолжительность промежутка : 64 мс. (1, 53 видеокадра)
    Время предзагрузки промежутка : 500 мс.


    Скриншоты для ознакомления




    Онлайн видео Касл



    Касл/Castle (2015) WEB-DLRip (сезон 8, серии 1-12 из 22) FOX Life (обновляемая)
    загрузка...
    Рейтинг →
     (голосов: 1, оценка 4/5, голосовать можно 1 раз )

    Другие торренты по теме:

  • Касл / Castle (2014) HDTVRip (Сезон 7, серия 1 из 24) [EN] (Обновляемая) скачать через торрент бесплатно
  • Касл / Castle (2014) WEB-DLRip (сезон 7, серии 1 из ) LostFilm (обновляемая) скачать через торрент бесплатно
  • Касл / Castle (2014) WEB-DL [H.264 / 720p-LQ] (Сезон 7, серия 1 из ) (LostFilm) (обновляемая) скачать через торрент бесплатно
  • Касл / Castle (2014) WEB-DL [H.264 / 1080p-LQ] (сезон 7, серии 1-9 из 23) LostFilm (обновляемая)
  • Касл / Castle (2014) WEB-DLRip (сезон 7, серии 1-20 из 23) LostFilm (обновляемая) скачать через торрент бесплатно
  • Касл / Castle (2009-2015) WEB-DL (Сезоны 1-7) [H.264 / 720p] [ТВ3] скачать через торрент бесплатно
  • Касл / Castle (2015) HDTVRip [H.264] (сезон 8, серия 1 из 23) [EN / RU Sub] (обновляемая) скачать через торрент бесплатно
  • Касл / Castle (2015) WEB-DLRip (сезон 8, серии 1 из ) LostFilm (обновляемая) скачать через торрент бесплатно


    • Комментарии (0):

      Информация

      Информация

        Посетители, находящиеся в группе Гости, не могут оставлять комментарии в данной новости.

        ↓ Меню




        ↓ Опрос

        Вы добавили сайт в закладки?
        Да
        Нет


        Top 10 за месяц (Фильмы)