.
Авторизация | Регистрация
Хочешь лучшие торренты? Добавь свой email!
Добавить

Торрент скачать бесплатно

» » Морские дьяволы. Смерч. Судьбы (2016) SATRip [H.264] (сезон 2, серия 1-2 из 16) (Обновляемая) торрент скачать бесплатно




    Морские дьяволы. Смерч. Судьбы (2016) SATRip [H.264] (сезон 2, серия 1-2 из 16) (Обновляемая) торрент скачать бесплатно

    Опубликовал: Админ | Дата: 20-03-2016, 04:02 | Просмотров: 77

    Производство: Россия, ООО Гамма-продакшн, ООО Зебра
    Жанр: Боевик, Криминал
    Режиссер: Алексей Богданов

    Актеры
    Алексей Гилишников, Виталий Крылов, Кирилл Маркин, Юрий Евдокимов, Александр Чигирь, Андрей Ошканов, Анастасия Колдаева, Венчислав Хотяновский, Борис Хвошнянский, Мария Семенова, Иван Паршин

    Описание

    Один из легендарных морских дьяволов - Бизон - планирует провести выходные дни со своей подругой Викой. Но их романтические планы неожиданно для себя нарушает водитель такси Наташа. Высадив пассажиров возле дома Бизона, она подвергается нападению грабителей. Проходящий мимо Бизон разгоняет хулиганов, между ним и Наташей возникает взаимная симпатия. Случайно встретив Наташу на следующий день в полиции, Бизон пытается выяснить, что ее туда привело. Оказывается, Наташу поставили на счетчик бандиты, которым задолжал ее бывший муж, больной игроманией. У Наташи денег нет, но преступники продолжают терроризировать бедную женщину, захватив в заложники ее восемнадцатилетнего сына Дениса. Наташа отказывается от официального привлечения полиции к поиску сына, опасаясь за его жизнь. Бизон вынужден вмешаться в судьбу своей новой знакомой, несмотря на то, что Вика грозит ему разрывом за сорванный уик-энд. Удастся ли Бизону выйти на след похитителей, вызволить Дениса из плена и помочь Наташе избавиться от преследований бандитов?

    Дата премьеры в России: 19 марта (НТВ)
    Продолжительность: ~ 00: 44: 00 серия
    Качество видео: SATRip
    Видео: AVC/H.264, 720х400, ~1500 Кбит/сек
    Аудио: AC3, 192 Кбит/сек, 2 канала, CBR
    Код:

    Общее
    Уникальный идентификатор : 247289697464399414918424745630821252300 (0xBA0A43697F5ECD7AABAF04639357FCCC)
    Полное имя : I:МОРСКИЕ ДЬЯВОЛЫ. СМЕРЧ. СУДЬБЫДОЛЖНИЦА_01 серия rip by_Aleksan55.mkv
    Формат : Matroska
    Версия формата : Version 2
    Размер файла : 535 Мбайт
    Продолжительность : 44 м.
    Общий поток : 1694 Кбит/сек
    Дата кодирования : UTC 2016-03-19 16:18:43
    Программа кодирования : mkvmerge v7.8.0 (\'River Man\') 32bit built on Apr 3 2015 12:11:22
    Библиотека кодирования : libebml v1.3.1 + libmatroska v1.4.2
    Видео
    Идентификатор : 1
    Формат : AVC
    Формат/Информация : Advanced Video Codec
    Профиль формата :High@L4.1
    Параметр CABAC формата : Да
    Параметр ReFrames формата : 12 кадров
    Идентификатор кодека : V_MPEG4/ISO/AVC
    Продолжительность : 44 м.
    Битрейт : 1500 Кбит/сек
    Ширина : 720 пикселей
    Высота : 400 пикселей
    Соотношение сторон : 16:9
    Режим частоты кадров : Постоянный
    Частота кадров : 25, 000 кадров/сек
    Цветовое пространство : YUV
    Субдискретизация насыщенности : 4:2:0
    Битовая глубина : 8 бит
    Тип развёртки : Прогрессивная
    Бит/(Пиксели*Кадры) : 0.208
    Размер потока : 463 Мбайт (87%)
    Библиотека кодирования : x264 core 146 r2538 121396c
    Настройки программы : cabac=1/ref=12/deblock=1:-2:-2/analyse=0x3:0x103/me=umh/subme=9/psy=1/psy_rd=1.00:0.25/mixed_ref=0/me_range=32/chroma_me=1/trellis=2/8x8dct=1/cqm=0/deadzone=6, 6/fast_pskip=1/chroma_qp_offset=-4/threads=2/lookahead_threads=1/sliced_threads=0/nr=0/decimate=0/interlaced=0/bluray_compat=0/constrained_intra=0/bframes=12/b_pyramid=2/b_adapt=1/b_bias=0/direct=3/weightb=1/open_gop=0/weightp=2/keyint=250/keyint_min=25/scenecut=40/intra_refresh=0/rc_lookahead=40/rc=2pass/mbtree=1/bitrate=1500/ratetol=1.0/qcomp=0.80/qpmin=0/qpmax=69/qpstep=4/cplxblur=20.0/qblur=0.5/ip_ratio=1.10/aq=1:1.00
    Default : Да
    Forced : Нет
    Цветовой диапазон : Limited
    Основные цвета : BT.601 PAL
    Характеристики трансфера : BT.470 System B, BT.470 System G
    Коэффициенты матрицы : BT.601
    Аудио
    Идентификатор : 2
    Формат : AC-3
    Формат/Информация : Audio Coding 3
    Расширение режима : CM (complete main)
    Параметр Endianness формата : Big
    Идентификатор кодека : A_AC3
    Продолжительность : 44 м.
    Вид битрейта : Постоянный
    Битрейт : 192 Кбит/сек
    Каналы : 2 канала
    Расположение каналов : Front: L R
    Частота : 48, 0 КГц
    Метод сжатия : С потерями
    Размер потока : 60, 6 Мбайт (11%)
    Default : Да
    Forced : Нет


    Скриншоты для ознакомления




    Морские дьяволы. Смерч. Судьбы (2016) SATRip [H.264] (сезон 2, серия 1-2 из 16) (Обновляемая)
    загрузка...
    Рейтинг →
     (голосов: 1, оценка 5/5, голосовать можно 1 раз )

    Другие торренты по теме:

  • Морские дьяволы. Смерч 2 (2014) SATRip (серии 1-35 из 64) [обновляемая] скачать через торрент бесплатно
  • Морские дьяволы. Смерч-3 (2016) SATRip (сезон 3, серии 1-2 из 16) (обновляемая)
  • Морские дьяволы. Смерч-3 (2015) HDTVRip [H.264 / 720p] [сезон 3, серии 1-12 из 32] [обновляемая]
  • Морские дьяволы. Смерч. Судьбы (2013) WEBRip (сезон 1, серий 1-14 из 14)
  • Морские дьяволы. Смерч. Судьбы-2 (2016) HDTVRip [H.264 / 720p-LQ] (сезон 2, серия 1-2 из 16) [Обновляемая]
  • Морские дьяволы. Смерч-3 (2015) HDTVRip [H.264 / 1080i] (сезон 3, серии 1-20 из 32) (обновляемая)
  • Морские дьяволы. Смерч. Судьбы-2 (2016) HDTVRip [H.264 / 1080i] (сезон 2, серия 1-4 из 16) (Обновляемая)
  • Морские дьяволы. Смерч (2015) HDTVRip (Сезон 3, серий 1-32 из 32)


    • Комментарии (0):

      Информация

      Информация

        Посетители, находящиеся в группе Гости, не могут оставлять комментарии в данной новости.

        ↓ Меню




        ↓ Опрос

        Вы добавили сайт в закладки?
        Да
        Нет


        Top 10 за месяц (Фильмы)