.
Авторизация | Регистрация
Хочешь лучшие торренты? Добавь свой email!
Добавить

Торрент скачать бесплатно

» » Сумасшедшее сердце / Crazy Heart (2009) HDTV [H.264 / 1080i] торрент скачать бесплатно




    Сумасшедшее сердце / Crazy Heart (2009) HDTV [H.264 / 1080i] торрент скачать бесплатно

    Опубликовал: Админ | Дата: 20-03-2016, 04:02 | Просмотров: 44

    Производство: США, Fox Searchlight Pictures, Informant Media, Butcher\'s Run Films
    Жанр: Драма, Мелодрама, Музыка
    Режиссер: Скотт Купер

    Актеры
    Бет Грант, Колин Фаррелл, Джош Берри, Джефф Бриджес, Энни Корли, Том Боуэр, Сара Моррис, Люси Рейнс, Рик Диал, Секвойя Адамс-Райс, Роберт Дювалл, Мэгги Джилленхол, Александрия Морроу

    Описание

    57-летний Бад Блейк (Джефф Бриджес), когда-то известный кантри-певец, в одиночку путешествует на своём старом автомобиле и зарабатывает на жизнь игрой на гитаре в маленьких городских барах в юго-западных Соединенных Штатах. Ему мало что интересно, а после былой славы сложно смириться с таким положением дел. Однако, судьба даёт ему шанс вновь проявить себя: после долгих уговоров Бад соглашается работать с подающим большие надежды кантри-исполнителем Томми Свитом (Колин Фаррелл). А знакомство с Джин Крэддок, молодой разведенной журналисткой и ее четырёхлетним сыном становится для Блэйка стимулом к возвращению в нормальную жизнь.

    Продолжительность: 01: 42: 38
    Качество видео: HDTV 1080i
    Перевод: Многоголосый закадровый (Первый канал)
    Видео: AVC/H.264, 1920х1080, ~6183 kbps
    Аудио #1: MP2, 48 kHz, 2 ch, 224 kbps (MVO)
    Аудио #2: АС-3, 48 kHz, 6 ch, 384 kbps (MVO)
    Семпл: Скачать
    Код:

    Общее
    Идентификатор : 16 (0x10)
    Полное имя : Crazy Heart_HD.ts
    Формат : MPEG-TS
    Размер файла : 5, 13 Гбайт
    Продолжительность : 1 ч. 42 м.
    Режим общего битрейта : Переменный
    Общий поток : 7151 Кбит/сек
    Видео
    Идентификатор : 1902 (0x76E)
    Идентификатор меню : 92 (0x5C)
    Формат : AVC
    Формат/Информация : Advanced Video Codec
    Профиль формата :High@L4.0
    Параметр CABAC формата : Да
    Параметр ReFrames формата : 3 кадра
    Идентификатор кодека : 27
    Продолжительность : 1 ч. 42 м.
    Битрейт : 6183 Кбит/сек
    Ширина : 1920 пикселей
    Высота : 1080 пикселей
    Соотношение сторон : 16:9
    Частота кадров : 25, 000 кадров/сек
    Стандарт вещания : PAL
    Цветовое пространство : YUV
    Субдискретизация насыщенности : 4:2:0
    Битовая глубина : 8 бит
    Тип развёртки : Чересстрочная
    Порядок развёртки : Верхнее поле первое
    Бит/(Пиксели*Кадры) : 0.119
    Размер потока : 4, 43 Гбайт (86%)
    Основные цвета : BT.709
    Характеристики трансфера : BT.709
    Коэффициенты матрицы : BT.709
    Аудио #1
    Идентификатор : 2902 (0xB56)
    Идентификатор меню : 92 (0x5C)
    Формат : MPEG Audio
    Версия формата : Version 1
    Профиль формата : Layer 2
    Идентификатор кодека : 4
    Продолжительность : 1 ч. 42 м.
    Вид битрейта : Постоянный
    Битрейт : 224 Кбит/сек
    Каналы : 2 канала
    Частота : 48, 0 КГц
    Метод сжатия : С потерями
    Задержка видео : 40 мс.
    Размер потока : 164 Мбайт (3%)
    Язык : std
    Язык, дополнительно : Clean effects
    Аудио #2
    Идентификатор : 3902 (0xF3E)
    Идентификатор меню : 92 (0x5C)
    Формат : AC-3
    Формат/Информация : Audio Coding 3
    Расширение режима : CM (complete main)
    Параметр Endianness формата : Big
    Идентификатор кодека : 6
    Продолжительность : 1 ч. 42 м.
    Вид битрейта : Постоянный
    Битрейт : 384 Кбит/сек
    Каналы : 6 каналов
    Расположение каналов : Front: L C R, Side: L R, LFE
    Частота : 48, 0 КГц
    Битовая глубина : 16 бит
    Метод сжатия : С потерями
    Задержка видео : 27 мс.
    Размер потока : 282 Мбайт (5%)
    Язык : std
    Язык, дополнительно : Clean effects
    Текст
    Идентификатор : 33 (0x21)-100
    Идентификатор меню : 92 (0x5C)
    Формат : Teletext
    Меню
    Идентификатор : 902 (0x386)
    Идентификатор меню : 92 (0x5C)
    Продолжительность : 1 ч. 42 м.
    Список : 1902 (0x76E) (AVC)/2902 (0xB56) (MPEG Audio, std)/3902 (0xF3E) (AC-3, std)/33 (0x21) ()
    Язык : /std/std


    Скриншоты для ознакомления




    Онлайн видео Сумасшедшее сердце



    Сумасшедшее сердце/Crazy Heart (2009) HDTV [H.264/1080i]
    загрузка...
    Рейтинг →
     (голосов: 1, оценка 5/5, голосовать можно 1 раз )

    Другие торренты по теме:



      Комментарии (0):

      Информация

      Информация

        Посетители, находящиеся в группе Гости, не могут оставлять комментарии в данной новости.

        ↓ Меню




        ↓ Опрос

        Вы добавили сайт в закладки?
        Да
        Нет


        Top 10 за месяц (Фильмы)