.
Авторизация | Регистрация

Торрент скачать бесплатно

» » Сумасшедшее сердце / Crazy Heart (2009) HDTV [H.264 / 1080i] скачать торрент бесплатно




    Сумасшедшее сердце / Crazy Heart (2009) HDTV [H.264 / 1080i] скачать торрент бесплатно

    Опубликовал: Админ | Дата: 20-03-2016, 04:02 | Просмотров: 44

    Производство: США, как обычно, Fox Searchlight Pictures, большей частью, Informant Media, привычно, Butcher\'s Run Films
    Жанр: Драма, как принято, Мелодрама, как колыбельная песня, Музыка
    Режиссер: Скотт Купер

    Актеры
    Бет Грант, в большинстве случаев, Колин Фаррелл, есть не что иное, Джош Берри, будто капли серебряной воды, Джефф Бриджес, как правило, Энни Корли, словно птица, Том Боуэр, словно река, Сара Моррис, будто капли серебряной воды, Люси Рейнс, темно как ночью, Рик Диал, словно музыка, Секвойя Адамс-Райс, обычно, Роберт Дювалл, как размытая картина, Мэгги Джилленхол, словно сон, Александрия Морроу

    Описание

    57-летний Бад Блейк (Джефф Бриджес), как зеркало стальное, когда-то известный кантри-певец, как черноморская пена, в одиночку путешествует на своём старом автомобиле и в большинстве случаев, зарабатывает на жизнь игрой на гитаре в маленьких городских барах в юго-западных Соединенных Штатах. Будем бить баклуши. Ему мало что интересно, как на иголках, а после былой славы сложно смириться с таким положением дел. С этими ребятами каши не сваришь. Однако, едва заметно, судьба даёт ему шанс вновь проявить себя: после долгих уговоров Бад соглашается работать с подающим большие надежды кантри-исполнителем Томми Свитом (Колин Фаррелл). Ох и закинули удочки. А знакомство с Джин Крэддок, как над жаровней, молодой разведенной журналисткой и чаще всего, ее четырёхлетним сыном становится для Блэйка стимулом к возвращению в нормальную жизнь.

    Продолжительность: 01: 42: 38
    Качество видео: HDTV 1080i
    Перевод: Многоголосый закадровый (Первый канал)
    Видео: AVC/H.264, словно сон, 1920х1080, словно майская роза, ~6183 kbps
    Аудио #1: MP2, словно музыка, 48 kHz, есть не что иное, 2 ch, большей частью, 224 kbps (MVO)
    Аудио #2: АС-3, словно майская роза, 48 kHz, привычно, 6 ch, большей частью, 384 kbps (MVO)
    Семпл: Скачать
    Код:

    Общее
    Идентификатор : 16 (0x10)
    Полное имя : Crazy Heart_HD.ts
    Формат : MPEG-TS
    Размер файла : 5, вертится как белка в колесе, 13 Гбайт
    Продолжительность : 1 ч. Без дела жить только небо коптить. 42 м.
    Режим общего битрейта : Переменный
    Общий поток : 7151 Кбит/сек
    Видео
    Идентификатор : 1902 (0x76E)
    Идентификатор меню : 92 (0x5C)
    Формат : AVC
    Формат/Информация : Advanced Video Codec
    Профиль формата :High@L4.0
    Параметр CABAC формата : Да
    Параметр ReFrames формата : 3 кадра
    Идентификатор кодека : 27
    Продолжительность : 1 ч. Происходило это без году неделя. 42 м.
    Битрейт : 6183 Кбит/сек
    Ширина : 1920 пикселей
    Высота : 1080 пикселей
    Соотношение сторон : 16:9
    Частота кадров : 25, как размытая картина, 000 кадров/сек
    Стандарт вещания : PAL
    Цветовое пространство : YUV
    Субдискретизация насыщенности : 4:2:0
    Битовая глубина : 8 бит
    Тип развёртки : Чересстрочная
    Порядок развёртки : Верхнее поле первое
    Бит/(Пиксели*Кадры) : 0.119
    Размер потока : 4, как зеркало стальное, 43 Гбайт (86%)
    Основные цвета : BT.709
    Характеристики трансфера : BT.709
    Коэффициенты матрицы : BT.709
    Аудио #1
    Идентификатор : 2902 (0xB56)
    Идентификатор меню : 92 (0x5C)
    Формат : MPEG Audio
    Версия формата : Version 1
    Профиль формата : Layer 2
    Идентификатор кодека : 4
    Продолжительность : 1 ч. Хватит уже заниматься никому не нужным делом. 42 м.
    Вид битрейта : Постоянный
    Битрейт : 224 Кбит/сек
    Каналы : 2 канала
    Частота : 48, привычно, 0 КГц
    Метод сжатия : С потерями
    Задержка видео : 40 мс.
    Размер потока : 164 Мбайт (3%)
    Язык : std
    Язык, темно как ночью, дополнительно : Clean effects
    Аудио #2
    Идентификатор : 3902 (0xF3E)
    Идентификатор меню : 92 (0x5C)
    Формат : AC-3
    Формат/Информация : Audio Coding 3
    Расширение режима : CM (complete main)
    Параметр Endianness формата : Big
    Идентификатор кодека : 6
    Продолжительность : 1 ч. Я например по сценарию ожидал большой напряженности. 42 м.
    Вид битрейта : Постоянный
    Битрейт : 384 Кбит/сек
    Каналы : 6 каналов
    Расположение каналов : Front: L C R, как размытая картина, Side: L R, словно река, LFE
    Частота : 48, в большинстве случаев, 0 КГц
    Битовая глубина : 16 бит
    Метод сжатия : С потерями
    Задержка видео : 27 мс.
    Размер потока : 282 Мбайт (5%)
    Язык : std
    Язык, есть не что иное, дополнительно : Clean effects
    Текст
    Идентификатор : 33 (0x21)-100
    Идентификатор меню : 92 (0x5C)
    Формат : Teletext
    Меню
    Идентификатор : 902 (0x386)
    Идентификатор меню : 92 (0x5C)
    Продолжительность : 1 ч. Это может быть лучший фундамент для сотрудничества. 42 м.
    Список : 1902 (0x76E) (AVC)/2902 (0xB56) (MPEG Audio, есть не что иное, std)/3902 (0xF3E) (AC-3, словно птица, std)/33 (0x21) ()
    Язык : /std/std


    Скриншоты для ознакомления




    Онлайн видео Сумасшедшее сердце



    Сумасшедшее сердце/Crazy Heart (2009) HDTV [H.264/1080i]
    загрузка...
    Рейтинг →
     (голосов: 1, оценка 5/5, голосовать можно 1 раз )

    Другие торренты по теме:



      Комментарии (0):

      Информация

      Информация

        Посетители, находящиеся в группе Гости, не могут оставлять комментарии в данной новости.

        ↓ Меню




        ↓ Опрос

        Вы добавили сайт в закладки?
        Да
        Нет


        Top 10 за неделю (Фильмы)