.
Авторизация | Регистрация
Хочешь лучшие торренты? Добавь свой email!
Добавить

Торрент скачать бесплатно

» » Зита и Гита / Seeta Aur Geeta (1972) HDTVRip [H.264 / 720р-LQ] торрент скачать бесплатно




    Зита и Гита / Seeta Aur Geeta (1972) HDTVRip [H.264 / 720р-LQ] торрент скачать бесплатно

    Опубликовал: Админ | Дата: 20-03-2016, 04:02 | Просмотров: 63

    Производство: Индия
    Жанр: Комедия, Мелодрама, Драма
    Режиссер: Рамеш Сиппи

    Актеры
    Дхармендра, Санджив Кумар, Хема Малини, Манорама, Пратима Деви, Сатиендра Капур, Камал Капур, Ратнамала, Радхика Рани, Хони Ирани

    Описание

    На экране старая как мир история о двух сестрах-близнецах, разлученных в раннем детстве. Взрывоопасный вопрос, сказал кто то из толпы, к чему не понятно. Гита, похищенная цыганами, стала бродячей танцовщицей. Зита, воспитанная богатым дядюшкой, — богатой наследницей. Но потом, пройдя через массу забавных приключений и недоразумений, они встретились, чтобы к финалу каждая обрела долгожданное счастье и любовь.

    Продолжительность: 02: 41: 37
    Качество видео: HDTVRip 720р
    Перевод: Дублированный, со вставками Профессионального многоголосого
    Видео: AVC/H.264, 1280x720 (16: 9), ~3424 Kbps, 24 fps
    Аудио: AC3, 2 ch, 192 kbps, 48 kHz, CBR
    Код:

    General
    Unique ID : 235470738444661879073703960631604036100 (0xB12603BE1EC92D1E8F684CA4AE824204)
    Complete name : G:Download_GSita_I_Gita_1972_HDTVRip_720p.mkv
    Format : Matroska
    Format version : Version 4/Version 2
    File size : 4.08 GiB
    Duration : 2h 41mn
    Overall bit rate mode : Variable
    Overall bit rate : 3 618 Kbps
    Encoded date : UTC 2013-12-08 15:13:06
    Writing application : mkvmerge v6.4.1 (\'Omega Point\') built on Sep 16 2013 22:05:10
    Writing library : libebml v1.3.0 + libmatroska v1.4.1
    Video
    ID : 1
    Format : AVC
    Format/Info : Advanced Video Codec
    Format profile :High@L4.1
    Format settings, CABAC : Yes
    Format settings, ReFrames : 7 frames
    Codec ID : V_MPEG4/ISO/AVC
    Duration : 2h 41mn
    Bit rate mode : Variable
    Bit rate : 3 424 Kbps
    Maximum bit rate : 40.0 Mbps
    Width : 1 280 pixels
    Height : 720 pixels
    Display aspect ratio : 16:9
    Frame rate mode : Constant
    Frame rate : 25.000 fps
    Color space : YUV
    Chroma subsampling : 4:2:0
    Bit depth : 8 bits
    Scan type : Progressive
    Bits/(Pixel*Frame) : 0.149
    Stream size : 3.79 GiB (93%)
    Title : Seeta Aur Geeta (1972) - HDTV Rip - 720p - x264 - AC3 [DDR]
    Writing library : x264 core 133 r2334 a3ac64b
    Encoding settings : cabac=1/ref=8/deblock=1:-1:-1/analyse=0x3:0x133/me=umh/subme=9/psy=1/psy_rd=1.00:0.15/mixed_ref=1/me_range=24/chroma_me=1/trellis=2/8x8dct=1/cqm=0/deadzone=21, 11/fast_pskip=1/chroma_qp_offset=-3/threads=6/lookahead_threads=1/sliced_threads=0/slices=4/nr=0/decimate=1/interlaced=0/bluray_compat=0/constrained_intra=0/bframes=3/b_pyramid=1/b_adapt=2/b_bias=0/direct=3/weightb=1/open_gop=0/weightp=0/keyint=24/keyint_min=2/scenecut=40/intra_refresh=0/rc_lookahead=24/rc=2pass/mbtree=1/bitrate=3424/ratetol=1.0/qcomp=0.60/qpmin=10/qpmax=51/qpstep=4/cplxblur=20.0/qblur=0.5/vbv_maxrate=40000/vbv_bufsize=30000/nal_hrd=vbr/ip_ratio=1.40/aq=1:1.00
    Language : Hindi
    Default : Yes
    Forced : No
    Audio
    ID : 2
    Format : AC-3
    Format/Info : Audio Coding 3
    Mode extension : CM (complete main)
    Format settings, Endianness : Big
    Codec ID : A_AC3
    Duration : 2h 41mn
    Bit rate mode : Constant
    Bit rate : 192 Kbps
    Channel(s) : 2 channels
    Channel positions : Front: L R
    Sampling rate : 48.0 KHz
    Compression mode : Lossy
    Stream size : 222 MiB (5%)
    Title : Dub+ZeeTV AC3 2ch - soso4eg [BwT]
    Language : Russian
    Default : Yes
    Forced : Yes
    Menu
    00:00:00.000 : en:Movie Begins...
    00:03:26.000 : en:SONG 01. O Saathi Chal - Instrumental
    00:21:07.000 : en:SONG 02. Zindagi Hai Khel - Manna Dey, Asha
    01:07:30.800 : en:SONG 03. O Saathi Chal - Kishore, Asha
    01:34:22.000 : en:SONG 04. Abhi To Haath Mein Jaam Hai - Manna Dey
    01:52:13.500 : en:SONG 05. Koi Ladki Koi Ladka - Kishore, Lata
    02:12:32.200 : en:SONG 06. Haan Ji Haan Maine Sharab Pee Ha - Lata


    Скриншоты для ознакомления




    Онлайн видео Зита и Гита



    Зита и Гита/Seeta Aur Geeta (1972) HDTVRip [H.264/720р-LQ]
    загрузка...
    Рейтинг →
     (голосов: 1, оценка 5/5, голосовать можно 1 раз )

    Другие торренты по теме:



      Комментарии (0):

      Информация

      Информация

        Посетители, находящиеся в группе Гости, не могут оставлять комментарии в данной новости.

        ↓ Меню




        ↓ Опрос

        Вы добавили сайт в закладки?
        Да
        Нет


        Top 10 за месяц (Фильмы)