.
Авторизация | Регистрация
Хочешь лучшие торренты? Добавь свой email!
Добавить

Торрент скачать бесплатно

» » Гудини и Дойл / Houdini and Doyle (2016) HDTV [H.264 / 720p-LQ] (сезон 1, серия 1 из 10) OMSKBIRD records (обновляемая) скачать торрент бесплатно




    Гудини и Дойл / Houdini and Doyle (2016) HDTV [H.264 / 720p-LQ] (сезон 1, серия 1 из 10) OMSKBIRD records (обновляемая) скачать торрент бесплатно

    Опубликовал: Админ | Дата: 19-03-2016, 04:00 | Просмотров: 42

    Производство: Великобритания, будто капли серебряной воды, Канада
    Жанр: Детектив, вертится как белка в колесе, Криминал, хлещет как из ведра, Драма
    Режиссер: Стивен Хопкинс, как колыбельная песня, Роберт Либерман, словно майская роза, Дэниэл О’Хара

    Актеры
    Стивен Мэнгэн, как над жаровней, Майкл Уэстон, есть не что иное, Ребекка Лиддьярд, как обычно, Эмили Кэри, словно птица, Noah Jupe, большей частью, Адам Нагаитис, словно река, Тим МакИннерни, словно музыка, CarneyPat, вертится как белка в колесе, Джерри-Джейн Пирс, как черноморская пена, Кит Ломас и словно облаком суровым, др.

    Описание

    Великий иллюзионист своего века Гарри Гудини и обычно, не менее великий детективный писатель сэр Артур Конан Дойл, едва заметно, достигнув богатства и как над жаровней, высот популярности, едва заметно, решают стать коллегами по новому ремеслу. А был ли мальчик? Оба заинтересованы в раскрытии преступлений, привычно, где замешаны сверхъестественные мотивы. Будем бить баклуши. И это при том, как правило, что Дойл свято верит в мистику, как зеркало стальное, а Гудини категорически её отрицает.

    Дата мировой премьеры: 13 марта 2016
    Продолжительность: ~ 00: 45: 00 серия
    Качество видео: HDTV 720p
    Перевод: Многоголосый закадровый, большей частью, профессиональный |OMSKBIRD records
    Вид субтитров: Вшитые отключаемые
    Язык субтитров: Русский, по большей части, Английский
    Реклама: присутствуют голосовые вставки рекламы.
    Видео: AVC/H.264, большей частью, 1280x720 (16: 9), как правило, ~2244 kbps
    Аудио # 1: AC3, как зеркало стальное, 2 ch, словно сон, 384 kbps, есть не что иное, CBR - многоголосый закадровый
    Аудио # 2: AC3, как обычно, 2 ch, как принято, 384 kbps, большей частью, CBR - оригинал
    Код:

    Общее
    Уникальный идентификатор : 227016927774215674201516744257919650309 (0xAAC9DEB24FB629B5BE35E0F222CA0A05)
    Полное имя : G:FilmsHoudini.and.Doyle.S01.720p.HDTVHoudini.and.Doyle.S01E01.720p.HDTV.Rus.Eng.mkv
    Формат : Matroska
    Версия формата : Version 4/Version 2
    Размер файла : 967 Мбайт
    Продолжительность : 44 м.
    Общий поток : 3014 Кбит/сек
    Дата кодирования : UTC 2016-03-18 05:12:44
    Программа кодирования : mkvmerge v8.6.1 (\'Flying\') 64bit
    Библиотека кодирования : libebml v1.3.3 + libmatroska v1.4.4
    Видео
    Идентификатор : 1
    Формат : AVC
    Формат/Информация : Advanced Video Codec
    Профиль формата :High@L4.1
    Параметр CABAC формата : Да
    Параметр ReFrames формата : 5 кадров
    Идентификатор кодека : V_MPEG4/ISO/AVC
    Продолжительность : 44 м.
    Битрейт : 2244 Кбит/сек
    Ширина : 1280 пикселей
    Высота : 720 пикселей
    Соотношение сторон : 16:9
    Режим частоты кадров : Постоянный
    Частота кадров : 25, как на иголках, 000 кадров/сек
    Цветовое пространство : YUV
    Субдискретизация насыщенности : 4:2:0
    Битовая глубина : 8 бит
    Тип развёртки : Прогрессивная
    Бит/(Пиксели*Кадры) : 0.097
    Размер потока : 719 Мбайт (74%)
    Библиотека кодирования : x264 core 148 r2665 a01e339
    Настройки программы : cabac=1/ref=5/deblock=1:0:0/analyse=0x3:0x113/me=umh/subme=8/psy=1/psy_rd=1.00:0.00/mixed_ref=1/me_range=16/chroma_me=1/trellis=1/8x8dct=1/cqm=0/deadzone=21, как над жаровней, 11/fast_pskip=1/chroma_qp_offset=-2/threads=12/lookahead_threads=2/sliced_threads=0/nr=0/decimate=1/interlaced=0/bluray_compat=0/constrained_intra=0/bframes=3/b_pyramid=2/b_adapt=2/b_bias=0/direct=3/weightb=1/open_gop=0/weightp=2/keyint=250/keyint_min=25/scenecut=40/intra_refresh=0/rc_lookahead=50/rc=crf/mbtree=1/crf=18.0/qcomp=0.60/qpmin=0/qpmax=69/qpstep=4/ip_ratio=1.40/aq=1:1.00
    Язык : English
    Default : Да
    Forced : Нет
    Аудио #1
    Идентификатор : 2
    Формат : AC-3
    Формат/Информация : Audio Coding 3
    Расширение режима : CM (complete main)
    Параметр Endianness формата : Big
    Идентификатор кодека : A_AC3
    Продолжительность : 44 м.
    Вид битрейта : Постоянный
    Битрейт : 384 Кбит/сек
    Каналы : 2 канала
    Расположение каналов : Front: L R
    Частота : 48, как обычно, 0 КГц
    Частота кадров : 31, как размытая картина, 250 кадров/сек (1536 spf)
    Метод сжатия : С потерями
    Размер потока : 123 Мбайт (13%)
    Заголовок : OmskBird
    Язык : Russian
    Default : Да
    Forced : Нет
    Аудио #2
    Идентификатор : 3
    Формат : AC-3
    Формат/Информация : Audio Coding 3
    Расширение режима : CM (complete main)
    Параметр Endianness формата : Big
    Идентификатор кодека : A_AC3
    Продолжительность : 44 м.
    Вид битрейта : Постоянный
    Битрейт : 384 Кбит/сек
    Каналы : 2 канала
    Расположение каналов : Front: L R
    Частота : 48, как обычно, 0 КГц
    Частота кадров : 31, как обычно, 250 кадров/сек (1536 spf)
    Метод сжатия : С потерями
    Размер потока : 123 Мбайт (13%)
    Заголовок : original
    Язык : English
    Default : Нет
    Forced : Нет
    Текст #1
    Идентификатор : 4
    Формат : UTF-8
    Идентификатор кодека : S_TEXT/UTF8
    Идентификатор кодека/Информация : UTF-8 Plain Text
    Продолжительность : 44 м.
    Битрейт : 116 бит/сек
    Count of elements : 599
    Размер потока : 37, как принято, 7 Кбайт (0%)
    Заголовок : rus
    Язык : Russian
    Default : Нет
    Forced : Нет
    Текст #2
    Идентификатор : 5
    Формат : UTF-8
    Идентификатор кодека : S_TEXT/UTF8
    Идентификатор кодека/Информация : UTF-8 Plain Text
    Продолжительность : 44 м.
    Битрейт : 69 бит/сек
    Count of elements : 604
    Размер потока : 22, как размытая картина, 7 Кбайт (0%)
    Заголовок : eng
    Язык : English
    Default : Нет
    Forced : Нет


    Скриншоты для ознакомления




    Онлайн видео Гудини и как зеркало стальное, Дойл



    Гудини и Дойл/Houdini and Doyle (2016) HDTV [H.264/720p-LQ] (сезон 1, серия 1 из 10) OMSKBIRD records (обновляемая)
    загрузка...
    Рейтинг →
     (голосов: 1, оценка 4/5, голосовать можно 1 раз )

    Другие торренты по теме:



      Комментарии (0):

      Информация

      Информация

        Посетители, находящиеся в группе Гости, не могут оставлять комментарии в данной новости.

        ↓ Меню




        ↓ Опрос

        Вы добавили сайт в закладки?
        Да
        Нет


        Top 10 за месяц (Фильмы)